[ Сегодня на трекере фрилич! Идет свободное скачивание без начисления Download ]

(Шансон) Петлюра (Юрий Барабаш) - Бродяга - 2002, FLAC (image+.cue), lossless

 

Создавать темы 11-Янв-2014 01:57

--Петлюра (Юрий Барабаш) - Бродяга-- Жанр: Шансон
Страна-производитель диска: Россия
Год издания: 2002
Издатель (лейбл): Master Sound & Монолит
Номер по каталогу: MS CD 434/02
Аудиокодек: FLAC (*.flac)
Тип рипа: image+.cue
Битрейт аудио: lossless
Продолжительность: 01:02:56
Наличие сканов в содержимом раздачи: да (600 DPI)
Треклист:


01. Бродяга
02. Не хотел умирать
03. Исповедь вора
04. Стена
05. Печальный парень
06. Алешка
07. Не судьба
08. Скорый поезд
09. Конопля (Remix)
10. Темная вода
11. Люди помогите
12. Дочь прокурора
13. Платье белое
14. Споем жиган
15. Хочешь я прибегу (Remix)
16. Малолетка
17. Я опускаюсь на колени

Отчёт EAC

Exact Audio Copy V1.0 beta 3 from 29. August 2011
Отчёт EAC об извлечении, выполненном 2. июля 2013, 22:41
Петлюра (Юрий Барабаш) / Бродяга
Дисковод: ASUS DRW-22B3S Adapter: 0 ID: 1
Режим чтения : Достоверность
Использование точного потока : Да
Отключение кэша аудио : Да
Использование указателей C2 : Нет
Коррекция смещения при чтении : 6
Способность читать области Lead-in и Lead-out : Нет
Заполнение пропущенных сэмплов тишиной : Да
Удаление блоков с тишиной в начале и конце : Нет
При вычислениях CRC использовались нулевые сэмплы : Да
Интерфейс : Встроенный Win32-интерфейс для Win NT/2000
Выходной формат : Внутренние WAV-операции
Формат сэмплов : 44.100 Гц; 16 бит; стерео
TOC извлечённого CD
Трек | Старт | Длительность | Начальный сектор | Конечный сектор
---------------------------------------------------------------------
1 | 0:00.00 | 2:45.60 | 0 | 12434
2 | 2:45.60 | 2:24.13 | 12435 | 23247
3 | 5:09.73 | 3:33.26 | 23248 | 39248
4 | 8:43.24 | 3:47.24 | 39249 | 56297
5 | 12:30.48 | 3:28.72 | 56298 | 71969
6 | 15:59.45 | 4:18.15 | 71970 | 91334
7 | 20:17.60 | 2:37.35 | 91335 | 103144
8 | 22:55.20 | 3:19.33 | 103145 | 118102
9 | 26:14.53 | 4:55.25 | 118103 | 140252
10 | 31:10.03 | 3:48.74 | 140253 | 157426
11 | 34:59.02 | 3:48.34 | 157427 | 174560
12 | 38:47.36 | 4:17.57 | 174561 | 193892
13 | 43:05.18 | 4:07.46 | 193893 | 212463
14 | 47:12.64 | 3:20.64 | 212464 | 227527
15 | 50:33.53 | 4:04.74 | 227528 | 245901
16 | 54:38.52 | 3:45.28 | 245902 | 262804
17 | 58:24.05 | 4:32.17 | 262805 | 283221
Характеристики диапазона извлечения и сообщения об ошибках
Выбранный диапазон
Имя файла C:\Шансон\Петлюра (Юрий Барабаш) - Дискография\2002 - Петлюра (Юрий Барабаш) - Бродяга\Петлюра (Юрий Барабаш) - Бродяга.wav
Пиковый уровень 98.8 %
Скорость извлечения 6.4 X
Качество диапазона 100.0 %
CRC теста 285368FB
CRC копии 285368FB
Копирование... OK
Ошибок не произошло
AccurateRip: сводка
Трек 1 отсутствует в базе данных
Трек 2 отсутствует в базе данных
Трек 3 отсутствует в базе данных
Трек 4 отсутствует в базе данных
Трек 5 отсутствует в базе данных
Трек 6 отсутствует в базе данных
Трек 7 отсутствует в базе данных
Трек 8 отсутствует в базе данных
Трек 9 отсутствует в базе данных
Трек 10 отсутствует в базе данных
Трек 11 отсутствует в базе данных
Трек 12 отсутствует в базе данных
Трек 13 отсутствует в базе данных
Трек 14 отсутствует в базе данных
Трек 15 отсутствует в базе данных
Трек 16 отсутствует в базе данных
Трек 17 отсутствует в базе данных
Ни одного трека нет в базе AccurateRip
Конец отчёта
==== Контрольная сумма отчёта E2B16418A5B9A8308F68A3111CA3E648759C5EC8F01887D5A482AE8CB3412FAC ====
Яндекс.Метрика
Рейтинг@Mail.ru