Летучий отряд Скотланд-Ярда / The Sweeney (Ник Лав / Nick Love) [2012 / Боевик, драма, криминал / HDRip-AVC от Killbrain and Scarabey | Лицензия]

 

Создавать темы 10-Янв-2014 08:31

Летучий отряд Скотланд-Ярда / The Sweeney
«Чтобы поймать преступника - действуй как преступник»
- Страна: Великобритания
Студия: Vertigo Films, Embargo Films, Exponential Films
Жанр: Боевик, драма, криминал
Год выпуска: 2012
Продолжительность: 01:52:30
Перевод: русский профессиональный (многоголосый, закадровый) [Лицензия, R5]
Оригинальная аудиодорожка: английская
Русские субтитры: есть
Режиссер: Ник Лав / Nick Love
В ролях: Рэй Уинстон, Бен Дрю, Хейли Этвелл, Стивен Макинтош, Пол Андерсон, Алан Форд, Дэмиэн Льюис, Кэролайн Чикези, Аллен Лич, Ронни Фокс-Английская полиция прикладывает максимум усилий для того, чтобы преступники были наказаны. Но детектив Джек Риген борется с преступностью по-своему: грязными, нелегальными, жестокими методами…-Тип релиза: HDRip-AVC
Контейнер: MKV
Видео кодек: x264
Аудио кодек: AC3
Видео: AVC / [email protected] / 2 pass / 23,976 fps / 1024x432p (2,40:1) / 2319 Kbps / 0.219
Аудио: AC3 / 5.1 ch / 448 kbps / Русский MVO, R5
Субтитры: нет
Дополнительно: Сохранены оригинальные чаптеры (главы) как на Blu-ray-
-

Дополнительно о фильме:

Технические детали съёмки:

Производство, студия дубляжа, прокат:

Log x264:

x264 [info]: frame I:1723 Avg QP:14.50 size: 76966
x264 [info]: frame P:39549 Avg QP:17.38 size: 24685
x264 [info]: frame B:120585 Avg QP:19.51 size: 6998

MediaInfo:

Общее
Уникальный идентификатор : 178713615403265215792697270626087954546 (0x8672FD86C1E71F898392188323096872)
Полное имя : F:Скачка торрентThe.Sweeney.2012.HDRip.AVC(Killbrain)_[scarabey.org].mkv
Формат : Matroska
Версия формата : Version 2
Размер файла : 2,17 Гбайт
Продолжительность : 1 ч. 52 м.
Общий поток : 2764 Кбит/сек
Название фильма : The Sweeney (2012) by Killbrain
Дата кодирования : UTC 2014-01-09 09:33:11
Программа кодирования : mkvmerge v5.8.0 ('No Sleep / Pillow') built on Sep 2 2012 15:37:04
Библиотека кодирования : libebml v1.2.3 + libmatroska v1.3.0
Видео
Идентификатор : 1
Формат : AVC
Формат/Информация : Advanced Video Codec
Профиль формата : [email protected]
Параметр CABAC формата : Да
Параметр ReFrames формата : 9 кадров
Идентификатор кодека : V_MPEG4/ISO/AVC
Продолжительность : 1 ч. 52 м.
Битрейт : 2319 Кбит/сек
Ширина : 1024 пикселя
Высота : 432 пикселя
Соотношение сторон : 2,40:1
Режим частоты кадров : Постоянный
Частота кадров : 23,976 кадра/сек
Цветовое пространство : YUV
Субдискретизация насыщенности : 4:2:0
Битовая глубина : 8 бит
Тип развёртки : Прогрессивная
Бит/(Пиксели*Кадры) : 0.219
Размер потока : 1,78 Гбайт (82%)
Заголовок : The Sweeney (2012)
Библиотека кодирования : x264 core 138 r2358 9e941d1
Настройки программы : cabac=1 / ref=9 / deblock=1:-2:-2 / analyse=0x3:0x113 / me=umh / subme=10 / psy=1 / psy_rd=1.00:0.05 / mixed_ref=1 / me_range=32 / chroma_me=1 / trellis=2 / 8x8dct=1 / cqm=0 / deadzone=21,11 / fast_pskip=0 / chroma_qp_offset=-3 / threads=3 / lookahead_threads=1 / sliced_threads=0 / nr=0 / decimate=0 / interlaced=0 / bluray_compat=0 / constrained_intra=0 / bframes=6 / b_pyramid=2 / b_adapt=2 / b_bias=0 / direct=3 / weightb=1 / open_gop=0 / weightp=2 / keyint=240 / keyint_min=24 / scenecut=40 / intra_refresh=0 / rc_lookahead=60 / rc=2pass / mbtree=0 / bitrate=2319 / ratetol=1.0 / qcomp=0.65 / qpmin=0 / qpmax=69 / qpstep=4 / cplxblur=20.0 / qblur=0.5 / vbv_maxrate=40000 / vbv_bufsize=30000 / nal_hrd=none / ip_ratio=1.40 / pb_ratio=1.30 / aq=1:0.90
Язык : English
Default : Да
Forced : Нет
Аудио
Идентификатор : 2
Формат : AC-3
Формат/Информация : Audio Coding 3
Расширение режима : CM (complete main)
Параметр Endianness формата : Big
Идентификатор кодека : A_AC3
Продолжительность : 1 ч. 52 м.
Вид битрейта : Постоянный
Битрейт : 448 Кбит/сек
Каналы : 6 каналов
Расположение каналов : Front: L C R, Side: L R, LFE
Частота : 48,0 КГц
Битовая глубина : 16 бит
Метод сжатия : С потерями
Размер потока : 361 Мбайт (16%)
Заголовок : AC3 / 5.1 ch / 448 kbps / Русский MVO, R5
Язык : Russian
Default : Да
Forced : Нет
Меню
00:00:00.000 : :Chapter 01
00:02:30.483 : :Chapter 02
00:08:25.379 : :Chapter 03
00:14:03.801 : :Chapter 04
00:18:37.199 : :Chapter 05
00:23:48.802 : :Chapter 06
00:30:36.543 : :Chapter 07
00:39:29.700 : :Chapter 08
00:51:49.439 : :Chapter 09
00:56:04.819 : :Chapter 10
01:02:58.107 : :Chapter 11
01:06:33.197 : :Chapter 12
01:13:10.135 : :Chapter 13
01:16:45.851 : :Chapter 14
01:22:14.012 : :Chapter 15
01:26:23.928 : :Chapter 16
01:29:36.537 : :Chapter 17
01:35:08.369 : :Chapter 18
01:41:53.398 : :Chapter 19
01:49:25.016 : :Chapter 20

Немного отзывов с Кинопоиска.Ру:



Скриншоты:

Яндекс.Метрика
Рейтинг@Mail.ru