Горечь и сладость / Dalkomhan insaeng / A Bittersweet Life (Ким Чжи Ун) [2005 / Боевик, драма, криминал / BDRip-AVC от Rulya74 | A]

 

Создавать темы 10-Янв-2014 08:17

Горечь и сладость / Dalkomhan insaeng / A Bittersweet Life (2005) BDRip-AVC
Информация о фильме
Название: Горечь и сладость
Оригинальное название: Dalkomhan insaeng / A Bittersweet Life
Год выхода: 2005
Жанр: Боевик, драма, криминал
Режиссер: Ким Чжи Ун
В ролях: Ли Бён Хон, Чжон-мин Хван, Ю-Ми Жонг, Ку Джин, Рой-ха Ким, Ён-чхоль Ким, Ги-ён Ли, Му-ён Ли, Эрик Мун...
О фильме: Сон У — хладнокровный перфекционист, управляющий дорогим рестораном. Он настолько мастерски справляется с работой, что заслужил безграничное доверие босса своей банды, мистера Кана.
У мистера Кана есть проблема — похоже, его юная подружка Хи Су встречается с кем-то на стороне, довериться в этом деликатном деле Кан может лишь Сон У, приказывая ему убить девчонку, если подозрения окажутся правдой. Через несколько дней слежки Сон У застает ее с любовником, но к своему собственному удивлению нарушает приказ и отпускает голубков; эта роковая слабость ввергает банду в необратимую войну.

Страна: Корея Южная
Продолжительность: 01:59:21
Перевод: Авторский одноголосый (Ю. Сербин)
Файл
Кодек: x.264
Качество: BDRip-AVC
Видео: 928x376 (2,468), 23,976 fps, 2013 kbps, 0.241 bit/pixel
Звук: 48 kHz, AC3 Dolby Digital, 6 ch, ~448.00 kbps
Субтитры: Русские, Английские (отключаемые)

MediaInfo

Общее
Уникальный идентификатор : 228110754690077599535287367793659299572 (0xAB9C8886F7A7D1C39381270A544F46F4)
Полное имя : D:Dalkomhan insaeng.2005.BDRip-AVC.mkv
Формат : Matroska
Версия формата : Version 4 / Version 2
Размер файла : 2,05 Гбайт
Продолжительность : 1 ч. 59 м.
Общий поток : 2463 Кбит/сек
Название фильма : Горечь и сладость / Dalkomhan insaeng / A Bittersweet Life (2005) BDRip-AVC rip by Rulya74
Дата кодирования : UTC 2014-01-09 19:57:38
Программа кодирования : mkvmerge v6.6.0 ('The Edge Of The In Between') built on Dec 1 2013 17:55:00
Библиотека кодирования : libebml v1.3.0 + libmatroska v1.4.1
Видео
Идентификатор : 1
Формат : AVC
Формат/Информация : Advanced Video Codec
Профиль формата : [email protected]
Параметр CABAC формата : Да
Параметр ReFrames формата : 12 кадров
Идентификатор кодека : V_MPEG4/ISO/AVC
Продолжительность : 1 ч. 59 м.
Битрейт : 2013 Кбит/сек
Ширина : 928 пикселей
Высота : 376 пикселей
Соотношение сторон : 2,468
Режим частоты кадров : Постоянный
Частота кадров : 23,976 кадра/сек
Цветовое пространство : YUV
Субдискретизация насыщенности : 4:2:0
Битовая глубина : 8 бит
Тип развёртки : Прогрессивная
Бит/(Пиксели*Кадры) : 0.241
Размер потока : 1,64 Гбайт (80%)
Библиотека кодирования : x264 core 138 r2358 9e941d1
Настройки программы : cabac=1 / ref=12 / deblock=1:-3:-3 / analyse=0x3:0x112 / me=umh / subme=11 / psy=1 / psy_rd=1.00:0.00 / mixed_ref=1 / me_range=48 / chroma_me=1 / trellis=2 / 8x8dct=1 / cqm=0 / deadzone=21,11 / fast_pskip=0 / chroma_qp_offset=-2 / threads=6 / lookahead_threads=1 / sliced_threads=0 / nr=0 / decimate=1 / interlaced=0 / bluray_compat=0 / constrained_intra=0 / bframes=8 / b_pyramid=2 / b_adapt=1 / b_bias=0 / direct=3 / weightb=1 / open_gop=0 / weightp=2 / keyint=240 / keyint_min=23 / scenecut=40 / intra_refresh=0 / rc_lookahead=40 / rc=2pass / mbtree=1 / bitrate=2013 / ratetol=1.0 / qcomp=0.60 / qpmin=0 / qpmax=69 / qpstep=4 / cplxblur=20.0 / qblur=0.5 / vbv_maxrate=62500 / vbv_bufsize=78125 / nal_hrd=none / ip_ratio=1.40 / aq=1:1.00
Default : Да
Forced : Нет
Аудио
Идентификатор : 2
Формат : AC-3
Формат/Информация : Audio Coding 3
Расширение режима : CM (complete main)
Параметр Endianness формата : Big
Идентификатор кодека : A_AC3
Продолжительность : 1 ч. 59 м.
Вид битрейта : Постоянный
Битрейт : 448 Кбит/сек
Каналы : 6 каналов
Расположение каналов : Front: L C R, Side: L R, LFE
Частота : 48,0 КГц
Битовая глубина : 16 бит
Метод сжатия : С потерями
Размер потока : 382 Мбайт (18%)
Заголовок : Авторский одноголосый (Ю. Сербин)
Язык : Russian
Default : Да
Forced : Нет
Текст #1
Идентификатор : 3
Формат : UTF-8
Идентификатор кодека : S_TEXT/UTF8
Идентификатор кодека/Информация : UTF-8 Plain Text
Язык : Russian
Default : Нет
Forced : Нет
Текст #2
Идентификатор : 4
Формат : UTF-8
Идентификатор кодека : S_TEXT/UTF8
Идентификатор кодека/Информация : UTF-8 Plain Text
Язык : English
Default : Нет
Forced : Нет
Меню
00:00:00.000 : :Chapter 01
00:05:42.383 : :Chapter 02
00:15:44.944 : :Chapter 03
00:24:13.910 : :Chapter 04
00:30:48.054 : :Chapter 05
00:39:35.372 : :Chapter 06
00:44:30.667 : :Chapter 07
00:47:30.430 : :Chapter 08
00:52:26.184 : :Chapter 09
00:59:52.422 : :Chapter 10
01:05:02.565 : :Chapter 11
01:09:19.655 : :Chapter 12
01:15:24.770 : :Chapter 13
01:26:26.055 : :Chapter 14
01:32:15.655 : :Chapter 15
01:39:27.419 : :Chapter 16
01:45:03.922 : :Chapter 17
01:50:52.479 : :Chapter 18

Скриншоты

Яндекс.Метрика
Рейтинг@Mail.ru