Мираж - 18 лет полная версия (Илья Глазунов) [2006, Pop, HDTV, 720p]

 

Создавать темы 20-Ноя-2016 14:35

- Мираж - 18 лет полная версия (2006) - Производство: Россия
Год выпуска: 2015
Жанр: Pop
Режиссер: Илья Глазунов
Актеры: Балет Дункан,Рома Жуков,гр.Кар-Мэн,Мираж,Аркадий Укупник,Татьяна Овсиенко и Виктор Салтыков,гр. Маленький принц и др.
Описание:
Легендарная диско-группа "Мираж" представляет юбилейный концерт "18 лет". На диске поклонники коллектива найдут хиты "Миража" в исполнении всех солисток коллектива: Н.Гулькиной, М.Суханкиной, Т.Овсиенко, С.Разиной, И.Салтыковой. Плюс к этому шлягеры "Миража" в исполнении звезд российской эстрады: группы "Технология", "Нэнси", "Восток", "Фристайл", "Маленький принц", А.Глызина, "Дюны" и Н.Сенчуковой, Фриды, А.Укупника, Натали, а также включая легендарный шлягер композитора Андрея Литягина - "Музыка нас связала", объединивший всех участников группы "Мираж" спустя "18 лет" "
Продолжительность: 03:22:22
Качество видео: HDTV [720p]
Видео: AVC/H.264, 1280x720, 7999 Kbps
Аудио: AAC, 2 ch, 192 Kbps

Треклист:

Треклист:
01. Балет Дункан - Пролог
02. Мираж (junior) - Брось
03. Рома Жуков - Фея
04. Светлана Владимирская - Дави на газ
05. гр. Кар-Мэн - Это Сан-Франциско
06. Полиция нравов - Мосты
07. гр. Технология - Саморазрушение
08. PlayGirls - Raga
09. Алексей Песков - пародия на Н. Ветлицкую "Посмотри в глаза"
10. Алексей Песков - пародия на И. Салтыкову "Серые глаза"
11. Аркадий Укупник - Безумный мир
12. Freeway - Кроха
13. Нина Кирсо и гр. Фристайл - Капелька
14. Мираж Junior - Нарисуй
15. Рома Жуков - Я люблю Вас девочки
16. Наталья Сенчукова и гр. "Дюна" - Снова вместе
17. МГК - Свечи
18. Shura - Видео
19. Натали - Я люблю тебя
20. Сергей Васюта и гр. "Сладкий сон" - На белом покрывале января
21. гр. "Диамант" - Звезды нас ждут
22. гр. Технология - Нажми на кнопку
23. Фрида и группа "Полиция нравов" - Я живу тобой
24. Вадим Казаченко и гр. "Фристайл" - Как же ты могла
25. Алексей Глызин - Думай и мечтай
26. Мираж Junior - Эхо
27. Мираж Junior - Пальчиком маня
28. Мираж Junior - Эта ночь
29. гр. Фристайл - Прощай навеки
30. гр. Нэнси - Дым сигарет с ментолом
31. гр. Восток, С.Разина, Р.Жуков - Миражи
32. Ирина Салтыкова - Бегу за тобой
33. Виктор Салтыков - Кони в яблоках
34. Татьяна Овсиенко и Виктор Салтыков - Берега любви
35. гр. Маленький принц - Мы встретимся снова
36. Мираж 90-х / Екатерина Болдышева и Алексей Горбашов - Я жду тебя
37. Мираж 90-х / Екатерина Болдышева и Алексей Горбашов - Млечный путь
38. Екатерина Болдышева и Маргарита Суханкина - Снежинка
39. Наталья Гулькина - Солнечное лето
40. Наталья Гулькина - Я не хочу
41. Соло на двоих - Просто мираж
42. Маргарита Суханкина и Алексей Горбашов - Где я?
43. гр.Маленький принц - Прощай
44. Светлана Разина - Новый герой
45. Ирина Салтыкова - Я снова вижу тебя
46. Татьяна Овсиенко - Наступает ночь
47. Татьяна Овсиенко - Я больше не прошу
48. Т. Овсиенко, Е. Болдышева и др. участники концерта - Музыка нас связала

МИ

Общее
Полное имя                               : C:\Users\User\Desktop\Мираж - 18 лет (HDTV720p).mp4
Формат                                   : MPEG-4
Профиль формата                          : Base Media / Version 2
Идентификатор кодека                     : mp42
Размер файла                             : 11,6 Гбайт
Продолжительность                        : 3 ч. 22 м.
Режим общего битрейта                    : Переменный
Общий поток                              : 8199 Кбит/сек
Видео
Идентификатор                            : 1
Формат                                   : AVC
Формат/Информация                        : Advanced Video Codec
Профиль формата                          : [url=mailto:[email protected]][email protected][/url]
Параметр CABAC формата                   : Да
Параметр ReFrames формата                : 2 кадра
Параметр GOP формата                     : M=3, N=30
Идентификатор кодека                     : avc1
Идентификатор кодека/Информация          : Advanced Video Coding
Продолжительность                        : 3 ч. 22 м.
Продолжительность оригинала              : 3 ч. 22 м.
Вид битрейта                             : Переменный
Битрейт                                  : 7999 Кбит/сек
Максимальный битрейт                     : 14,0 Мбит/сек
Ширина                                   : 1280 пикселей
Высота                                   : 720 пикселей
Соотношение сторон                       : 16:9
Режим частоты кадров                     : Постоянный
Частота кадров                           : 25,000 кадров/сек
Цветовое пространство                    : YUV
Субдискретизация насыщенности            : 4:2:0
Битовая глубина                          : 8 бит
Тип развёртки                            : Прогрессивная
Бит/(Пиксели*Кадры)                      : 0.347
Размер потока                            : 11,3 Гбайт (98%)
Размер потока оригинала                  : 11,3 Гбайт (98%)
Аудио
Идентификатор                            : 2
Формат                                   : AAC
Формат/Информация                        : Advanced Audio Codec
Профиль формата                          : LC
Идентификатор кодека                     : 40
Продолжительность                        : 3 ч. 22 м.
Продолжительность оригинала              : 3 ч. 22 м.
Вид битрейта                             : Постоянный
Битрейт                                  : 192 Кбит/сек
Каналы                                   : 2 канала
Расположение каналов                     : Front: L R
Частота                                  : 48,0 КГц
Метод сжатия                             : С потерями
Размер потока                            : 278 Мбайт (2%)
Размер потока оригинала                  : 278 Мбайт (2%)
Скриншоты:

Создавать темы 15-Фев-2018 19:05 (спустя 1 год 2 месяца)

Ещё есть версия в 720x576 на 7.02 гб.
И DVD-9 диск. Кому надо пишите в личку, скину на трекер.
Приятного просмотра.

Создавать темы 07-Авг-2018 08:50 (спустя 5 месяцев 19 дней)

С качеством конечно обманули .
Рейтинг@Mail.ru