Я плюю на ваши могилы 2 / I Spit on Your Grave 2 (Стивен Р. Монро / Steven R. Monro) [2013 г., ужасы, триллер, криминал, Blu-Ray Remux, 1080p] Dub [Чистый звук] Sub Eng + Original (Eng)

 

Создавать темы 09-Янв-2014 08:16

-Я плюю на ваши могилы 2 / I Spit on Your Grave 2-- Производство: США
Год выпуска: 2013 г.
Жанр: ужасы, триллер, криминал
Продолжительность: 01:46:2
Мировая премьера: 25 августа 2013
Российская премьера: 5 сентября 2013, «Каравелла DDC»
Дата выхода DVD: октября 2013, «Кармен Видео»
Дата выхода Blu-Ray: 13 ноября 2013, «Кармен Видео»
Перевод: Профессиональный (полное дублирование) [Чистый звук]
Оригинальный аудиопоток: английский
Режиссер: Стивен Р. Монро / Steven R. Monro-В ролях: Александр Алексеев, Кейси Барнфилд, Майкл Диксон, Георг Златарев, Явор Бахаров, Джемма Даллендер, Мэри Стокли, Питер Сильверлиф, Джо Эбсолом, Валентин Пелка-Описание: Красавица Кэти только что переехала в Нью-Йорк, чтобы сделать карьеру модели. Но девичьи мечты о роскошной жизни разбиваются: ее насилуют, пытают, а вскоре похищают и увозят в непонятном направлении. Кэти оказывается одна в чужой стране, где ее почти что похоронят заживо. Чудом избежав смерти, девушка решает жестоко отомстить обидчикам...-
Качество видео: Blu-Ray Remux
Контейнер: MKV
Стандарт разрешения: 1080p
Видео кодек: H.264
Аудио кодек: AC3, DTS
Видео: AVC, 1920x1080 [email protected] (16:9), 23.976 fps, 24.3 Mbps (0.488 bit/pixel)
Аудио: русский,AC3, 48.0 KHz, 6 ch, 448 Kbps, CBR (Дублированный)
Аудио #2: английский, DTS MA / Core, 48.0 KHz, 6 ch, 1 561 Kbps / 1 510 Kbps, VBR (оригинал)
Cубтитры: English, Romanian

Рецензия

Работая над «Я плюю на ваши могилы-2», Стивен Монро, безусловно, учёл ряд слабых мест фильма-предшественника. Так, вместо морально двусмысленной истории о том, как жертва насилия сама делает сиротой дочь одного из мерзавцев, мы видим на экранах семейство, каждый член которого в той или иной степени поехал крышей. Второе, способы казней. Кто-то назовёт их плоскими, но на самом деле это ещё один шаг в сторону натурализма, ведь девушка просто не может воспользоваться иными методами в виду нехватки времени и ограниченного инструментария.
Мои аплодисменты главной героине. Милая, наивная и ну очень неудачливая Джемма Даллендер за секунды превращается в чудовище, внешне и внутренне, стоит ей покрыться десятком кровоподтеков. Её мисс Кэтти ломает все стереотипы о изобретательных и хладнокровных маньяках, которых обычно не встретишь в жизни, а только на голубых экранах. В этом фильме меньше чёрных острот, однако есть настоящее безумие и звериный рык, раздающийся, когда она пытает жертв.
Картина подчеркнуто приближена к действительности, отсюда и не блещущие умом психопаты-насильники, и самоуверенная жертва, «на всякий пожарный» хранящая защитный баллончик в прикроватной тумбочке, и рыхлые действия полиции. Лента давит своим ощущением безысходности, заставляя снова и снова задумываться о безнаказанности преступников и полной халатности тех, кто вроде бы должен от них защищать.
Отдельное спасибо С. Монро за сценарный ход с «мисс попечительницей». Этот сюжетный поворот является настоящей находкой. Ведь зритель уже считает, что впереди у героини долгий путь к восстановлению, но тут страх выходит на новый уровень.
В целом очень неплохой образчик современного эксплуатационного кинематографа, даже несмотря на логические несостыковки в удивительной транспортировке мисс Кэтти из Нью-Йорка в Болгарию.
8 из 10

Media Info

Общее
Уникальный идентификатор : 186264785389822725338794237979810491383 (0x8C214AF36A23CD3BAC9DEC9C48E26BF7)
Полное имя : F:\Фильмы\ЗАРУБНЖНЫЕ\Blu-Ray\I.Spit.On.Your.Grave.2.2013.BDRemux.(1080p.).mkv
Формат : Matroska
Версия формата : Version 2
Размер файла : 19,9 Гбайт
Продолжительность : 1 ч. 46 м.
Режим общего битрейта : Переменный
Общий поток : 26,8 Мбит/сек
Дата кодирования : UTC 2013-10-05 20:17:15
Программа кодирования : mkvmerge v5.6.0 ('Kenya Kane') built on May 27 2012 16:44:04
Библиотека кодирования : libebml v1.2.3 + libmatroska v1.3.0
Attachment : Yes
Видео
Идентификатор : 1
Формат : AVC
Формат/Информация : Advanced Video Codec
Профиль формата : [email protected]
Параметр CABAC формата : Да
Параметр ReFrames формата : 2 кадра
Идентификатор кодека : V_MPEG4/ISO/AVC
Продолжительность : 1 ч. 46 м.
Вид битрейта : Переменный
Битрейт : 24,3 Мбит/сек
Ширина : 1920 пикселей
Высота : 1080 пикселей
Соотношение сторон : 16:9
Частота кадров : 23,976 кадра/сек
Цветовое пространство : YUV
Субдискретизация насыщенности : 4:2:0
Битовая глубина : 8 бит
Тип развёртки : Прогрессивная
Бит/(Пиксели*Кадры) : 0.488
Размер потока : 18,0 Гбайт (91%)
Заголовок : GORESEWAGE & Cinemania.cc
Язык : English
Default : Да
Forced : Нет
Аудио #1
Идентификатор : 2
Формат : AC-3
Формат/Информация : Audio Coding 3
Расширение режима : CM (complete main)
Идентификатор кодека : A_AC3
Продолжительность : 1 ч. 46 м.
Вид битрейта : Постоянный
Битрейт : 448 Кбит/сек
Каналы : 6 каналов
Расположение каналов : Front: L C R, Side: L R, LFE
Частота : 48,0 КГц
Битовая глубина : 16 бит
Метод сжатия : С потерями
Размер потока : 340 Мбайт (2%)
Заголовок : Дублированный (Чистый звук)
Язык : Russian
Default : Да
Forced : Да
Аудио #2
Идентификатор : 3
Формат : DTS
Формат/Информация : Digital Theater Systems
Профиль формата : MA / Core
Идентификатор кодека : A_DTS
Продолжительность : 1 ч. 46 м.
Вид битрейта : Переменный
Битрейт : 1561 Кбит/сек / 1510 Кбит/сек
Каналы : 6 каналов
Расположение каналов : Front: L C R, Side: L R, LFE
Частота : 48,0 КГц
Битовая глубина : 24 бит
Метод сжатия : Без потерь / Lossy
Язык : English
Default : Нет
Forced : Нет
Текст #1
Идентификатор : 4
Формат : UTF-8
Идентификатор кодека : S_TEXT/UTF8
Идентификатор кодека/Информация : UTF-8 Plain Text
Заголовок : SDH
Язык : English
Default : Нет
Forced : Нет
Текст #2
Идентификатор : 5
Формат : UTF-8
Идентификатор кодека : S_TEXT/UTF8
Идентификатор кодека/Информация : UTF-8 Plain Text
Язык : Romanian
Default : Нет
Forced : Нет
Меню
00:00:00.000 : en:00:00:00.000
00:07:11.056 : en:00:07:11.056
00:15:08.491 : en:00:15:08.491
00:24:16.455 : en:00:24:16.455
00:36:33.108 : en:00:36:33.108
00:46:44.844 : en:00:46:44.844
00:59:19.306 : en:00:59:19.306
01:11:52.683 : en:01:11:52.683
01:17:31.981 : en:01:17:31.981
01:23:12.112 : en:01:23:12.112
01:29:12.430 : en:01:29:12.430
01:42:08.205 : en:01:42:08.205

Скриншот c названием фильма

Скриншоты

-Трейлер-
Яндекс.Метрика
Рейтинг@Mail.ru