Заточенные кепки / Peaky Blinders (Сезон 1, полный, 6 серий) (Отто Баферст / Otto Bathurst ...) [2013 г., Драма, WEB-DLRip] MVO [LostFilm]

 

Создавать темы 09-Янв-2014 02:43

Заточенные кепки / Peaky Blinders- Русское название: Заточенные кепки
Оригинальное название: Peaky Blinders
Страна: Великобритания
Год выпуска: 2013
Жанр: Драма-Озвучка: Студия LostFilm
Перевод: Многоголосый закадровый, профессиональный-Режиссер: Отто Баферст / Otto Bathurst, Том Харпер / Tom Harper
Актеры: Киллиан Мёрфи, Пол Андерсон, Джо Коул, Элфи Эванс-Мис, Сэм Нил, Иддо Голдберг, Софи Рандл, Хелен МакКрори, Тони Питтс, Нед Деннехи ...-Описание фильма:
Британский сериал о криминальном мире Бирмингема 20-х годов прошлого века, в котором многолюдная семья Шелби стала одной из самых жестоких и влиятельных гангстерских банд послевоенного времени. Фирменным знаком группировки, промышлявшей грабежами и азартными играми, стали зашитые в козырьки лезвия.-Дата мировой премьеры: 12 сентября 2013-Сезон: 1
Серии: 6 из 6 серий
Продолжительность: ~ 00:57:00 серия-Качество видео: WEB-DLRip
Контейнер: AVI
Видео кодек: XviD
Аудио кодек: MP3
Видео: MPEG-4 Visual at 1209 Кбит/сек: 720 x 400 (1.800) at 25.000 fps, 0.168 Бит/Пиксели
Аудио Rus: MPEG Audio at 192 Кбит/сек: 2 канала, 48,0 КГц
Cубтитры: отсутствуют
- -

Список серий:

  • Эпизод 1
  • Эпизод 2
  • Эпизод 3
  • Эпизод 4
  • Эпизод 5
  • Эпизод 6
-

MediaInfo:

Общее
Полное имя                               : E:\_Сериалы\111\Заточенные кепки\Peaky Blinders 1 - LostFilm\Peaky.Blinders.S01E01.rus.LostFilm.TV.avi
Формат                                   : AVI
Формат/Информация                        : Audio Video Interleave
Размер файла                             : 575 Мбайт
Продолжительность                        : 57 м.
Режим общего битрейта                    : Переменный
Общий поток                              : 1408 Кбит/сек
Программа кодирования                    : Nandub v1.0rc2
Библиотека кодирования                   : Nandub build 1853/release
Видео
Идентификатор                            : 0
Формат                                   : MPEG-4 Visual
Профиль формата                          : [email protected]
Параметр BVOP формата                    : Нет
Параметр QPel формата                    : Нет
Параметр GMC формата                     : Без точки перехода
Параметр матрицы формата                 : Default (H.263)
Идентификатор кодека                     : XVID
Идентификатор кодека/Подсказка           : XviD
Продолжительность                        : 57 м.
Битрейт                                  : 1209 Кбит/сек
Ширина                                   : 720 пикселей
Высота                                   : 400 пикселей
Соотношение сторон                       : 16:9
Частота кадров                           : 25,000 кадров/сек
Цветовое пространство                    : YUV
Субдискретизация насыщенности            : 4:2:0
Битовая глубина                          : 8 бит
Тип развёртки                            : Прогрессивная
Метод сжатия                             : С потерями
Бит/(Пиксели*Кадры)                      : 0.168
Размер потока                            : 494 Мбайт (86%)
Библиотека кодирования                   : XviD 1.2.1 (UTC 2008-12-04)
Аудио
Идентификатор                            : 1
Формат                                   : MPEG Audio
Версия формата                           : Version 1
Профиль формата                          : Layer 3
Режим                                    : Joint stereo
Расширение режима                        : MS Stereo
Идентификатор кодека                     : 55
Идентификатор кодека/Подсказка           : MP3
Продолжительность                        : 57 м.
Вид битрейта                             : Переменный
Битрейт                                  : 192 Кбит/сек
Каналы                                   : 2 канала
Частота                                  : 48,0 КГц
Метод сжатия                             : С потерями
Размер потока                            : 76,0 Мбайт (13%)
Выравнивание                             : Соединение по промежуткам
Продолжительность промежутка             : 24  мс. (0,60 видеокадр)
Время предзагрузки промежутка            : 495  мс.
Библиотека кодирования                   : LAME3.97b
Настройки программы                      : -m j -V 4 -q 3 -lowpass 18.6 --abr 192
-

Скриншот c названием фильма

-Скриншоты:
-

Еще

-Добавлена шестая, заключительная, серия первого сезонаРаботаю за
Яндекс.Метрика
Рейтинг@Mail.ru