Игра в правду (Виктор Шамиров) [2013, комедия, DVDRip-AVC] от Youtracker | лицензия

 

Создавать темы 07-Окт-2013 09:08

Игра в правду«Комедия для взрослых по-французски» Страна: Россия
Студия: Базелевс Продакшн
Жанр: комедия
Год выпуска: 2013
Продолжительность: 01:31:17
Перевод: не требуется
Субтитры: нет
Оригинальная аудиодорожка: русский
Режиссер: Виктор Шамиров
В ролях: Ирина Апексимова, Константин Юшкевич, Дмитрий Марьянов, Гоша Куценко
Описание: Трое бывших однокурсников собираются на квартире поболтать под водочку и вспомнить юность. Разухабистый бизнесмен Марк порывается вызвонить девочек, но не находит поддержки у друзей: автодилер Геннадий скорее по привычке хранит верность жене, а хозяин квартиры — физик и неудачник Анатолий — подготовил для всех сюрприз. Он приглашает в гости звезду их курса Майю, в которую все трое были влюблены 20 лет назад. Разговор на четверых не клеится, пока не начинается предельно откровенная игра в правду. Друзья узнают друг о друге то, чего, возможно, предпочли бы не знать. Пройдут ли их отношения проверку правдой?- -Исходник: DVD9 R5
Тип релиза: DVDRip-AVC
Контейнер: MKV
Видео: [email protected] (2.40:1), 25.000 fps, XVID ~1833 kbps avg, 0.238 bit/pixel
Аудио: Русский 48 kHz, AC3, 6 ch, 448.00 kbps Constant

MediaInfo

Общее
Полное имя : Igra.v.pravdu.2013.O.DVDRip-AVC_[Youtracker]_by_avproh.mkv
Формат : Matroska
Версия формата : Version 2
Размер файла : 1,46 Гбайт
Продолжительность : 1 ч. 31 м.
Общий поток : 2282 Кбит/сек
Дата кодирования : UTC 2013-09-03 18:24:15
Программа кодирования : mkvmerge v5.0.1 ('Es ist Sommer') built on Nov 6 2011 16:23:40
Библиотека кодирования : libebml v1.2.2 + libmatroska v1.3.0
Видео
Идентификатор : 1
Формат : AVC
Формат/Информация : Advanced Video Codec
Профиль формата : [email protected]
Параметр CABAC формата : Да
Параметр ReFrames формата : 11 кадров
Идентификатор кодека : V_MPEG4/ISO/AVC
Продолжительность : 1 ч. 31 м.
Битрейт : 1833 Кбит/сек
Ширина : 720 пикселей
Высота : 428 пикселей
Соотношение сторон : 2,40:1
Режим частоты кадров : Постоянный
Частота кадров : 25,000 кадров/сек
Цветовое пространство : YUV
Субдискретизация насыщенности : 4:2:0
Битовая глубина : 8 бит
Тип развёртки : Прогрессивная
Бит/(Пиксели*Кадры) : 0.238
Размер потока : 1,14 Гбайт (78%)
Библиотека кодирования : x264 core 130 r2273 b3065e6
Настройки программы : cabac=1 / ref=11 / deblock=1:-2:-1 / analyse=0x3:0x113 / me=umh / subme=9 / psy=1 / psy_rd=1.00:0.20 / mixed_ref=1 / me_range=32 / chroma_me=1 / trellis=1 / 8x8dct=1 / cqm=0 / deadzone=21,11 / fast_pskip=0 / chroma_qp_offset=-3 / threads=9 / lookahead_threads=1 / sliced_threads=0 / nr=0 / decimate=0 / interlaced=0 / bluray_compat=0 / constrained_intra=0 / bframes=8 / b_pyramid=2 / b_adapt=2 / b_bias=0 / direct=3 / weightb=1 / open_gop=0 / weightp=2 / keyint=250 / keyint_min=25 / scenecut=40 / intra_refresh=0 / rc_lookahead=60 / rc=2pass / mbtree=1 / bitrate=1833 / ratetol=1.0 / qcomp=0.60 / qpmin=0 / qpmax=69 / qpstep=4 / cplxblur=20.0 / qblur=0.5 / ip_ratio=1.40 / aq=1:1.00
Default : Да
Forced : Нет
Аудио
Идентификатор : 2
Формат : AC-3
Формат/Информация : Audio Coding 3
Расширение режима : CM (complete main)
Параметр Endianness формата : Big
Идентификатор кодека : A_AC3
Продолжительность : 1 ч. 31 м.
Вид битрейта : Постоянный
Битрейт : 448 Кбит/сек
Каналы : 6 каналов
Расположение каналов : Front: L C R, Side: L R, LFE
Частота : 48,0 КГц
Битовая глубина : 16 бит
Метод сжатия : С потерями
Размер потока : 293 Мбайт (20%)
Default : Да
Forced : Нет

Скриншоты


_________________
Подпись отключена за нарушение правил форума
Яндекс.Метрика
Рейтинг@Mail.ru