Джек - покоритель великанов 3D / Jack the Giant Slayer 3D (Брайан Сингер / Bryan Singer) [2013, Фэнтези, драма, мелодрама, приключения, BDRip 1080p, Half OverUnder / Вертикальная анаморфная стереопара] Dub (Rus, Ukr) + Original (Eng) + Sub (Rus, Eng)

 

Создавать темы 09-Янв-2014 02:33

Джек - покоритель великанов 3D / Jack the Giant Slayer 3D
Год выпуска: 2013
Жанр: Фэнтези, драма, мелодрама, приключения
Выпущено: США, Bad Hat Harry Productions, Big Kid Pictures, Legendary Pictures
Продолжительность: 01:54:20
Перевод: Профессиональный (полное дублирование)
Режиссер: Брайан Сингер / Bryan Singer
В ролях: Николас Холт, Эван МакГрегор, Билл Найи, Стэнли Туччи, Иэн МакШейн, Уорвик Дэвис, Эдди Марсан, Юэн Бремнер, Элинор Томлинсон, Джон Кассир
Описание: «Джек – покоритель великанов» (Jack the Giant Slayer) – фантастическая история о юном фермере Джеке (Николас Холт), снятая по мотивам одноименной английской народной сказки. Великаны похитили принцессу, нарушив, таким образом, стародавнее перемирие с людьми. Джек возглавляет отряд по спасению принцессы и отправляется в логово великанов. Режиссер Брайан Сингер снял фильм в дивной Великобритании, богатой старинными замками и сказочными пейзажами.
Качество: BDRip 1080p
Контейнер: MKV
Формат 3D: Half OverUnder / Вертикальная анаморфная стереопара
Видео кодек: H.264
Аудио кодек: AC3
Видео: MPEG-4 AVC, 10.5 Мбит/с, 1920x1080
Аудио: Русский, украинский, английский (AC3, 6 ch, 640 Кбит/с)
Субтитры: Русские, английские (отключаемые)

MediaInfo

Общее
Уникальный идентификатор : 187266814361598918101623141681200071914 (0x8CE246CB1F518367AE8CE160D2DF84EA)
Полное имя : F:\Скачка торрент\Jack.The.Giant.Slayer.3D.2013.BDRip1080p.halfOU(Killbrain).mkv
Формат : Matroska
Версия формата : Version 4 / Version 2
Размер файла : 9,92 Гбайт
Продолжительность : 1 ч. 54 м.
Общий поток : 12,4 Мбит/сек
Название фильма : Jack the Giant Slayer 3D (2013) by Killbrain
Дата кодирования : UTC 2013-06-18 18:16:31
Программа кодирования : mkvmerge v6.2.0 ('Promised Land') built on Apr 28 2013 12:22:01
Библиотека кодирования : libebml v1.3.0 + libmatroska v1.4.0
Attachment : Yes / Yes / Yes
Видео
Идентификатор : 1
Формат : AVC
Формат/Информация : Advanced Video Codec
Профиль формата : [email protected]
Параметр CABAC формата : Да
Параметр ReFrames формата : 4 кадра
Идентификатор кодека : V_MPEG4/ISO/AVC
Продолжительность : 1 ч. 54 м.
Битрейт : 10,5 Мбит/сек
Ширина : 1920 пикселей
Высота : 1080 пикселей
Соотношение сторон : 16:9
Режим частоты кадров : Постоянный
Частота кадров : 23,976 кадра/сек
Цветовое пространство : YUV
Субдискретизация насыщенности : 4:2:0
Битовая глубина : 8 бит
Тип развёртки : Прогрессивная
Бит/(Пиксели*Кадры) : 0.211
Размер потока : 8,19 Гбайт (83%)
Заголовок : Jack the Giant Slayer 3D (2013)
Библиотека кодирования : x264 core 132 r2310 76a5c3a
Настройки программы : cabac=1 / ref=4 / deblock=1:-2:-2 / analyse=0x3:0x113 / me=umh / subme=9 / psy=1 / psy_rd=1.00:0.15 / mixed_ref=1 / me_range=16 / chroma_me=1 / trellis=2 / 8x8dct=1 / cqm=0 / deadzone=21,11 / fast_pskip=0 / chroma_qp_offset=-3 / threads=3 / lookahead_threads=1 / sliced_threads=0 / nr=0 / decimate=0 / interlaced=0 / bluray_compat=0 / constrained_intra=0 / bframes=6 / b_pyramid=2 / b_adapt=2 / b_bias=0 / direct=3 / weightb=1 / open_gop=0 / weightp=2 / keyint=240 / keyint_min=24 / scenecut=40 / intra_refresh=0 / rc_lookahead=60 / rc=2pass / mbtree=0 / bitrate=10500 / ratetol=1.0 / qcomp=0.65 / qpmin=0 / qpmax=69 / qpstep=4 / cplxblur=20.0 / qblur=0.5 / vbv_maxrate=40000 / vbv_bufsize=30000 / nal_hrd=none / frame-packing=4 / ip_ratio=1.40 / pb_ratio=1.30 / aq=1:0.70
Язык : English
Default : Да
Forced : Нет
Аудио #1
Идентификатор : 2
Формат : AC-3
Формат/Информация : Audio Coding 3
Расширение режима : CM (complete main)
Параметр Endianness формата : Big
Идентификатор кодека : A_AC3
Продолжительность : 1 ч. 54 м.
Вид битрейта : Постоянный
Битрейт : 640 Кбит/сек
Каналы : 6 каналов
Расположение каналов : Front: L C R, Side: L R, LFE
Частота : 48,0 КГц
Битовая глубина : 16 бит
Метод сжатия : С потерями
Размер потока : 524 Мбайт (5%)
Заголовок : AC3 / 5.1 ch / 640 kbps / Русский дубляж, BD CEE
Язык : Russian
Default : Да
Forced : Нет
Аудио #2
Идентификатор : 3
Формат : AC-3
Формат/Информация : Audio Coding 3
Расширение режима : CM (complete main)
Параметр Endianness формата : Big
Идентификатор кодека : A_AC3
Продолжительность : 1 ч. 54 м.
Вид битрейта : Постоянный
Битрейт : 640 Кбит/сек
Каналы : 6 каналов
Расположение каналов : Front: L C R, Side: L R, LFE
Частота : 48,0 КГц
Битовая глубина : 16 бит
Метод сжатия : С потерями
Размер потока : 524 Мбайт (5%)
Заголовок : AC3 / 5.1 ch / 640 kbps / Украинский дубляж, BD CEE
Язык : Ukrainian
Default : Нет
Forced : Нет
Аудио #3
Идентификатор : 4
Формат : AC-3
Формат/Информация : Audio Coding 3
Расширение режима : CM (complete main)
Параметр Endianness формата : Big
Идентификатор кодека : A_AC3
Продолжительность : 1 ч. 54 м.
Вид битрейта : Постоянный
Битрейт : 640 Кбит/сек
Каналы : 6 каналов
Расположение каналов : Front: L C R, Side: L R, LFE
Частота : 48,0 КГц
Битовая глубина : 16 бит
Метод сжатия : С потерями
Размер потока : 524 Мбайт (5%)
Заголовок : AC3 / 5.1 ch / 640 kbps / Английский original, BD CEE
Язык : English
Default : Нет
Forced : Нет
Текст #1
Идентификатор : 5
Формат : UTF-8
Идентификатор кодека : S_TEXT/UTF8
Идентификатор кодека/Информация : UTF-8 Plain Text
Заголовок : Forced, BD CEE
Язык : Russian
Default : Да
Forced : Нет
Текст #2
Идентификатор : 6
Формат : UTF-8
Идентификатор кодека : S_TEXT/UTF8
Идентификатор кодека/Информация : UTF-8 Plain Text
Заголовок : Full, BD CEE
Язык : Russian
Default : Нет
Forced : Нет
Текст #3
Идентификатор : 7
Формат : UTF-8
Идентификатор кодека : S_TEXT/UTF8
Идентификатор кодека/Информация : UTF-8 Plain Text
Заголовок : Full, BD CEE
Язык : English
Default : Нет
Forced : Нет
Текст #4
Идентификатор : 8
Формат : UTF-8
Идентификатор кодека : S_TEXT/UTF8
Идентификатор кодека/Информация : UTF-8 Plain Text
Заголовок : SDH
Язык : English
Default : Нет
Forced : Нет
Текст #5
Идентификатор : 9
Формат : UTF-8
Идентификатор кодека : S_TEXT/UTF8
Идентификатор кодека/Информация : UTF-8 Plain Text
Заголовок : SDH-COLOR
Язык : English
Default : Нет
Forced : Нет
Меню
00:00:00.000 : :Chapter 01
00:10:21.369 : :Chapter 02
00:19:23.746 : :Chapter 03
00:29:52.207 : :Chapter 04
00:38:55.375 : :Chapter 05
00:49:24.878 : :Chapter 06
00:59:35.488 : :Chapter 07
01:09:26.287 : :Chapter 08
01:20:39.167 : :Chapter 09
01:29:51.302 : :Chapter 10
01:39:02.811 : :Chapter 11
01:45:57.725 : :Chapter 12

Скриншоты

Яндекс.Метрика
Рейтинг@Mail.ru