Соль. Город 312 (РЕН-TV) [23.10.2016, Телепередача, SATRip]

 

Создавать темы 23-Окт-2016 18:03

- Соль. Город 312 (23.10.2016) - Телекомпания: РЕН-TV
Жанр: Телепередача
Участники: Захар Прилепин
Описание:
Ведущий шоу Захар Прилепин - человек с четко выраженной позицией, очевидно, что ему есть, что сказать людям. Каждая программа начинается с обозначения Прилепиным темы, которая для широкого зрителя является ключевой в текущем информационном поле. Ведущего и музыкальных гостей в студии, по словам самого Прилепина, объединит "яркость, талант, взрывоопасность в интеллектуальном смысле этого слова". Музыкантам предлагается высказать свою позицию по теме не столько вербально, сколько через свое творчество. Каждый музыкальный трек - это ответ музыкантов на развитие темы. Но и у Прилепина есть возможность ответить музыкантам, уточняя не только свою позицию, но и свое отношение к их творчеству. В этом споре ведущий и гости подойдут к тому, что называется "солью вопроса".
Продолжительность: 01:07:51
Качество видео: SATRip
Видео: Xvid, 720x400, ~1813 Кбит/сек
Аудио: AC3, 2 ch, 192 Кбит/сек, CBR

МИ

Общее
Полное имя                               : F:\видео\фильмы\Соль\Соль (2016.10.23) SATRip.avi
Формат                                   : AVI
Формат/Информация                        : Audio Video Interleave
Размер файла                             : 969 Мбайт
Продолжительность                        : 1 ч. 7 м.
Общий поток                              : 2019 Кбит/сек
Видео
Идентификатор                            : 0
Формат                                   : MPEG-4 Visual
Профиль формата                          : Advanced [email protected]
Параметр BVOP формата                    : 1
Параметр QPel формата                    : Нет
Параметр GMC формата                     : Без точки перехода
Параметр матрицы формата                 : Default (H.263)
Идентификатор кодека                     : XVID
Идентификатор кодека/Подсказка           : XviD
Продолжительность                        : 1 ч. 7 м.
Битрейт                                  : 1813 Кбит/сек
Ширина                                   : 720 пикселей
Высота                                   : 400 пикселей
Соотношение сторон                       : 16:9
Частота кадров                           : 25,000 кадров/сек
Цветовое пространство                    : YUV
Субдискретизация насыщенности            : 4:2:0
Битовая глубина                          : 8 бит
Тип развёртки                            : Прогрессивная
Метод сжатия                             : С потерями
Бит/(Пиксели*Кадры)                      : 0.252
Размер потока                            : 870 Мбайт (90%)
Библиотека кодирования                   : XviD 1.2.1 (UTC 2008-12-04)
Аудио
Идентификатор                            : 1
Формат                                   : AC-3
Формат/Информация                        : Audio Coding 3
Расширение режима                        : CM (complete main)
Параметр Endianness формата              : Big
Идентификатор кодека                     : 2000
Продолжительность                        : 1 ч. 7 м.
Вид битрейта                             : Постоянный
Битрейт                                  : 192 Кбит/сек
Каналы                                   : 2 канала
Расположение каналов                     : Front: L R
Частота                                  : 48,0 КГц
Частота кадров                           : 31,250 кадров/сек (1536 spf)
Метод сжатия                             : С потерями
Размер потока                            : 92,1 Мбайт (10%)
Выравнивание                             : Соединение по промежуткам
Продолжительность промежутка             : 32  мс. (0,80 видеокадр)
Скриншоты:
Рейтинг@Mail.ru