[ Сегодня на трекере фрилич! Идет свободное скачивание без начисления Download ]

Ходячие мертвецы на диком западе / Cowboy Zombies (Пол Уинтерс / Paul Winters) [2016, Ужасы, DVDRip] MVO (СПД)

 

Создавать темы 23-Окт-2016 15:33

- Ходячие мертвецы на диком западе / Cowboy Zombies - Производство: США
Жанр: Ужасы
Режиссер: Пол Уинтерс
Актеры: Jarod Anderson, Грег Бронсон, Кира Крауч, Matt E. Derdivanis, Эфрен Эскудеро, Марк Гроссман, Sam Keller, Calion Maston, Доун Никсон, Sandy Penny
Описание:
Территория Аризона, 1870-е. Маршал Фрэнк Уилкокс вместе с солдатом Буффало армии США должны побудить группу выживших сражаться, когда мертвецы поднимаются из могил и ищут плоти живых. В этой битве к ним присоединяется индейский вождь и пленный преступник. Этой группе людей придется научиться жить в мире, где мертвые разгуливают по улицам.

Дата мировой премьеры: 22 августа 2016
Продолжительность: 01:13:05
Качество видео: DVDRip http://sendfile.su/1276875
Перевод: Многоголосый закадровый, любительский (СПД)
Реклама: присутствуют аудио и видео вставки рекламы.
Видео: Xvid, 720х400, 1896 Кбит/сек
Аудио Rus: AC3, 2 ch, 384 Кбит/сек
Аудио Eng: AC3, 2 ch, 384 Кбит/сек

МИ

Walking.dead.in.the.west.2016.P.DVDRip.14OOMB.avi
Формат : AVI
Формат/Информация : Audio Video Interleave
Размер файла : 1,37 Гбайт
Продолжительность : 1 ч. 13 м.
Общий поток : 2678 Кбит/сек
Программа кодирования : VirtualDubMod 1.5.10.2 (build 2540/release)
Библиотека кодирования : VirtualDubMod build 2540/release
Видео
Идентификатор : 0
Формат : MPEG-4 Visual
Профиль формата : Advanced [email protected]
Параметр BVOP формата : 2
Параметр QPel формата : Нет
Параметр GMC формата : Без точки перехода
Параметр матрицы формата : Default (MPEG)
Идентификатор кодека : XVID
Идентификатор кодека/Подсказка : XviD
Продолжительность : 1 ч. 13 м.
Битрейт : 1896 Кбит/сек
Ширина : 720 пикселей
Высота : 400 пикселей
Соотношение сторон : 16:9
Частота кадров : 23,976 (24000/1001) кадра/сек
Цветовое пространство : YUV
Субдискретизация насыщенности : 4:2:0
Битовая глубина : 8 бит
Тип развёртки : Прогрессивная
Метод сжатия : С потерями
Бит/(Пиксели*Кадры) : 0.275
Размер потока : 991 Мбайт (71%)
Библиотека кодирования : XviD 1.2.1 (UTC 2008-12-04)
Аудио #1
Идентификатор : 1
Формат : AC-3
Формат/Информация : Audio Coding 3
Расширение режима : CM (complete main)
Параметр Endianness формата : Big
Идентификатор кодека : 2000
Продолжительность : 1 ч. 13 м.
Вид битрейта : Постоянный
Битрейт : 384 Кбит/сек
Каналы : 2 канала
Расположение каналов : Front: L R
Частота : 48,0 КГц
Частота кадров : 31,250 кадров/сек (1536 spf)
Метод сжатия : С потерями
Размер потока : 201 Мбайт (14%)
Выравнивание : Разделение по промежуткам
Продолжительность промежутка : 42 мс. (1,00 видеокадр)
Время предзагрузки промежутка : 500 мс.
Аудио #2
Идентификатор : 2
Формат : AC-3
Формат/Информация : Audio Coding 3
Расширение режима : CM (complete main)
Параметр Endianness формата : Big
Идентификатор кодека : 2000
Продолжительность : 1 ч. 13 м.
Вид битрейта : Постоянный
Битрейт : 384 Кбит/сек
Каналы : 2 канала
Расположение каналов : Front: L R
Частота : 48,0 КГц
Частота кадров : 31,250 кадров/сек (1536 spf)
Метод сжатия : С потерями
Размер потока : 201 Мбайт (14%)
Выравнивание : Разделение по промежуткам
Продолжительность промежутка : 42 мс. (1,00 видеокадр)
Время предзагрузки промежутка : 500 мс.
Скриншоты:
Рейтинг@Mail.ru