[ Сегодня на трекере фрилич! Идет свободное скачивание без начисления Download ]

Comedy Woman (ТНТ) [2016.10.21, ТВ-Шоу, юмор, WEB-DL, 720p-LQ]

 

Создавать темы 21-Окт-2016 20:36

- Comedy Woman (2016.10.21) - Телекомпания: ТНТ
Жанр: ТВ-Шоу, юмор
Участники:
Наталья Еприкян, Екатерина Скулкина, Екатерина Варнава, Мария Кравченко, Полина Сибагатуллина, Татьяна Морозова, Надежда Сысоева, Надежда Ангарская, Марина Федункив.
Описание:
Развлекательное шоу, в котором пресловутая женская логика оказывается как нельзя кстати. Девушки с выдающимся юмором и не менее выдающимися формами не позволят заскучать самому закоренелому снобу и накажут смехом даже законченного шовиниста. Сomedy Woman - место, в котором приятно побывать и не стыдно об этом вспомнить! Особенно зажигательные танцы, очень смешные шутки, а также жизненные истории, в которых каждая дама точно узнает себя и своих подруг.
Релиз от: ramzesII
Продолжительность: ~ 00:48:05
Качество видео: WEB-DL
Субтитры: Отсутствуют
Видео: AVC, 1280x720 (16:9), 25.000 fps, 3 511 Kbps (0.152 bit/pixel)
Аудио: AC-3, 48.0 KHz, 2 ch, 192 Kbps, CBR

МИ

Общее
Уникальный идентификатор                 : 185159379854340727860323747733139246417 (0x8B4C6640086C4BA2942E1DA526EA4D51)
Полное имя                               : D:\[1]\Comedy Woman\Comedy Woman (2016.10.21)_720.mkv
Формат                                   : Matroska
Версия формата                           : Version 4 / Version 2
Размер файла                             : 1,27 Гбайт
Продолжительность                        : 48 м.
Общий поток                              : 3779 Кбит/сек
Дата кодирования                         : UTC 2016-10-21 18:10:32
Программа кодирования                    : mkvmerge v9.4.2 ('So High') 64bit
Библиотека кодирования                   : libebml v1.3.4 + libmatroska v1.4.5
DURATION                                 : 00:48:05.280000000
NUMBER_OF_FRAMES                         : 90165
NUMBER_OF_BYTES                          : 69246720
_STATISTICS_WRITING_APP                  : mkvmerge v9.4.2 ('So High') 64bit
_STATISTICS_WRITING_DATE_UTC             : 2016-10-21 18:10:32
_STATISTICS_TAGS                         : BPS DURATION NUMBER_OF_FRAMES NUMBER_OF_BYTES
Видео
Идентификатор                            : 1
Формат                                   : AVC
Формат/Информация                        : Advanced Video Codec
Профиль формата                          : [url=mailto:[email protected]][email protected][/url]
Параметр CABAC формата                   : Да
Параметр ReFrames формата                : 1 кадр
Параметр GOP формата                     : M=1, N=12
Идентификатор кодека                     : V_MPEG4/ISO/AVC
Продолжительность                        : 48 м.
Битрейт                                  : 3511 Кбит/сек
Ширина                                   : 1280 пикселей
Высота                                   : 720 пикселей
Соотношение сторон                       : 16:9
Режим частоты кадров                     : Постоянный
Частота кадров                           : 25,000 кадров/сек
Стандарт вещания                         : Component
Цветовое пространство                    : YUV
Субдискретизация насыщенности            : 4:2:0
Битовая глубина                          : 8 бит
Тип развёртки                            : Прогрессивная
Бит/(Пиксели*Кадры)                      : 0.152
Размер потока                            : 1,18 Гбайт (93%)
Default                                  : Да
Forced                                   : Нет
Цветовой диапазон                        : Limited
Аудио
Идентификатор                            : 2
Формат                                   : AC-3
Формат/Информация                        : Audio Coding 3
Расширение режима                        : CM (complete main)
Параметр Endianness формата              : Big
Идентификатор кодека                     : A_AC3
Продолжительность                        : 48 м.
Вид битрейта                             : Постоянный
Битрейт                                  : 192 Кбит/сек
Каналы                                   : 2 канала
Расположение каналов                     : Front: L R
Частота                                  : 48,0 КГц
Битовая глубина                          : 16 бит
Метод сжатия                             : С потерями
Размер потока                            : 66,0 Мбайт (5%)
Default                                  : Да
Forced                                   : Нет
Скриншоты:
Рейтинг@Mail.ru