[ Сегодня на трекере фрилич! Идет свободное скачивание без начисления Download ]

Сальный душитель / The Greasy Strangler (Джим Хоскин / Jim Hosking) [2016, Ужасы, Триллер, Комедия, HDRip] VO (Хихикающий доктор)

 

Создавать темы 21-Окт-2016 19:38

- Сальный душитель / The Greasy Strangler - Производство: США
Жанр: Ужасы, Триллер, Комедия
Режиссер: Джим Хоскин
Продюсер: Дэниэл Ноа, Эндрю Старк, Ант Тимпсон
Актеры: Майкл Ст. Майклс, Скай Элобар, Лиза Де Радзо, Абдулаи Нгом, Сэм Диссанайяке, Джо Уолтерс, Джон Йуан, Мэтт Йуан, Мэл Кол, Сэл Кусса
Описание:
Ронни вместе с сыном Брайденом владеют небольшим семейным предприятием – пешим туром по всем памятным дискотекам, диско баром и всем остальным культовым местам, связанных с эпохой диско, славного города Лос-Анджелес. Однажды соблазнительная незнакомка записывается для участия в туре и между сыном и отцом начинается бескомпромиссное состязание за симпатию женщины.
Отцу и сыну на двоих уже, наверное, лет сто тридцать, и обоих можно было бы сдать в кунсткамеру в назидание подрастающему поколению, как не должен выглядеть здоровый мужчина, однако когда на кону стоит соблазнительное женское тело, Ронни и Брайден готовы выложить на стол все свои козыри. Например, прикинуться печально знаменитым в городе убийцей по кличке Сальный душитель, чтобы посеять в душе красавицы страх и вожделение. Хотя, может быть, Сальный душитель это и есть Ронни. Или Брайден. Или же Сальный душитель – это вообще женщина?


Дата мировой премьеры: 22 января 2016
Продолжительность: 01:33:19
Качество видео: HDRip http://sendfile.su/1276398
Перевод: Одноголосый закадровый, любительский (Хихикающий доктор)
Реклама: присутствуют аудио и видео вставки рекламы.

МИ

Видео: Xvid, 720х388, 1629 Кбит/сек
Аудио Rus: AC3, 2 ch, 256 Кбит/сек
Аудио Eng: AC3, 2 ch, 192 Кбит/сек
The.Greasy.Strangler.2016.L1.HDRip.avi
Формат : AVI
Формат/Информация : Audio Video Interleave
Размер файла : 1,36 Гбайт
Продолжительность : 1 ч. 33 м.
Общий поток : 2091 Кбит/сек
Программа кодирования : VirtualDubMod 1.5.10.3 | www.virtualdub-fr.org || (build 2550/release)
Библиотека кодирования : VirtualDubMod build 2550/release
Видео
Идентификатор : 0
Формат : MPEG-4 Visual
Профиль формата : Advanced [email protected]
Параметр BVOP формата : 2
Параметр QPel формата : Нет
Параметр GMC формата : Без точки перехода
Параметр матрицы формата : Default (H.263)
Идентификатор кодека : XVID
Идентификатор кодека/Подсказка : XviD
Продолжительность : 1 ч. 33 м.
Битрейт : 1629 Кбит/сек
Ширина : 720 пикселей
Высота : 388 пикселей
Соотношение сторон : 1,85:1
Частота кадров : 24,000 кадра/сек
Цветовое пространство : YUV
Субдискретизация насыщенности : 4:2:0
Битовая глубина : 8 бит
Тип развёртки : Прогрессивная
Метод сжатия : С потерями
Бит/(Пиксели*Кадры) : 0.243
Размер потока : 1,06 Гбайт (78%)
Библиотека кодирования : XviD 66
Аудио #1
Идентификатор : 1
Формат : AC-3
Формат/Информация : Audio Coding 3
Расширение режима : CM (complete main)
Параметр Endianness формата : Big
Идентификатор кодека : 2000
Продолжительность : 1 ч. 33 м.
Вид битрейта : Постоянный
Битрейт : 256 Кбит/сек
Каналы : 2 канала
Расположение каналов : Front: L R
Частота : 44,1 КГц
Частота кадров : 28,711 кадров/сек (1536 spf)
Метод сжатия : С потерями
Размер потока : 171 Мбайт (12%)
Выравнивание : Разделение по промежуткам
Продолжительность промежутка : 42 мс. (1,00 видеокадр)
Время предзагрузки промежутка : 500 мс.
Аудио #2
Идентификатор : 2
Формат : AC-3
Формат/Информация : Audio Coding 3
Расширение режима : CM (complete main)
Параметр Endianness формата : Big
Идентификатор кодека : 2000
Продолжительность : 1 ч. 33 м.
Вид битрейта : Постоянный
Битрейт : 192 Кбит/сек
Каналы : 2 канала
Расположение каналов : Front: L R
Частота : 48,0 КГц
Частота кадров : 31,250 кадров/сек (1536 spf)
Метод сжатия : С потерями
Размер потока : 128 Мбайт (9%)
Выравнивание : Разделение по промежуткам
Продолжительность промежутка : 42 мс. (1,00 видеокадр)
Время предзагрузки промежутка : 500 мс.
Скриншоты:
Рейтинг@Mail.ru