Восхождение на Олимп [8 серий из 8] (Сергей Щербин) [2016, Детектив, WEB-DLRip]

 

Создавать темы 21-Окт-2016 04:58

- Восхождение на Олимп (8 серий из 8) - Производство: Россия, Централ Партнершип
Жанр: Детектив
Режиссер: Сергей Щербин
Актеры: Владислав Резник, Юрий Батурин, Мария Капустинская, Заза Чантурия, Нино Нинидзе, Сергей Кудрявцев, Юрий Ицков, Сергей Барковский, Лука Тархан-Моурави, Наталья Ткаченко
Описание:
Лето 1980. Москва готовится к Олимпиаде. Все силы КГБ и МВД брошены на поддержание правопорядка. Но, несмотря на все предпринятые меры, в столице происходит череда громких ограблений. Среди них – дерзкая кража шедевра старого мастера из Музея изобразительных искусств. Следователь Алексей Ставров любой ценой должен вернуть полотно до начала Олимпиады, ведь на карте – репутация страны. Однако дело оказывается намного сложнее, чем можно было предположить: его истоки – в событиях 1945 года, а замешаны в нем художники и ученые, лимитчицы и интуристы, воры в законе и люди в погонах…


Возраст: 12+ (зрителям, достигшим 12 лет)
Продолжительность: 8х~ 00:50:00
Качество видео: WEB-DLRip
Видео: Xvid, 720x400, ~1790 Кбит/с
Аудио: AC3, 2 ch, 192 Кбит/с, CBR

МИ

General
Complete name : D:\Фильмы\Voshozdenie.na.Olimp.2016.WEB-DLRip.ExKinoRay\Voshozdenie.na.Olimp.(02.seriya).2016.WEB-DLRip.ExKinoRay.avi
Format : AVI
Format/Info : Audio Video Interleave
File size : 701 MiB
Duration : 53mn 42s
Overall bit rate : 1 823 Kbps
Writing application : VirtualDubMod 1.5.10.2 (build 2540/release)
Writing library : VirtualDubMod build 2540/release
Video
ID : 0
Format : MPEG-4 Visual
Format profile : Advanced [email protected]
Format settings, BVOP : 1
Format settings, QPel : No
Format settings, GMC : No warppoints
Format settings, Matrix : Custom
Codec ID : XVID
Codec ID/Hint : XviD
Duration : 53mn 42s
Bit rate : 1 622 Kbps
Width : 720 pixels
Height : 400 pixels
Display aspect ratio : 16:9
Frame rate : 25.000 fps
Color space : YUV
Chroma subsampling : 4:2:0
Bit depth : 8 bits
Scan type : Progressive
Compression mode : Lossy
Bits/(Pixel*Frame) : 0.225
Stream size : 623 MiB (89%)
Writing library : XviD 1.2.1 (UTC 2008-12-04)
Audio
ID : 1
Format : AC-3
Format/Info : Audio Coding 3
Mode extension : CM (complete main)
Format settings, Endianness : Big
Codec ID : 2000
Duration : 53mn 42s
Bit rate mode : Constant
Bit rate : 192 Kbps
Channel(s) : 2 channels
Channel positions : Front: L R
Sampling rate : 48.0 KHz
Bit depth : 16 bits
Compression mode : Lossy
Stream size : 73.8 MiB (11%)
Alignment : Split accross interleaves
Interleave, duration : 40 ms (1.00 video frame)
Interleave, preload duratio : 500 ms
Скриншоты:

Создавать темы 21-Окт-2016 06:53 (спустя 1 час 54 минуты)

naryshev, я ездил в 1980 на Олимпийские игры (в связи с играми прямая дорога в Москву была закрыта и пришлось пользоваться обходными путями), однако ездил на игры, но приехал на похороны Владимира Высоцкого (на игры так и не попал)
Рейтинг@Mail.ru