Стартрек: Бесконечность / Star Trek Beyond (Джастин Лин / Justin Lin) [2016 г., фантастика, боевик, триллер, приключения, HDRip] Dub [iTunes]

 

Создавать темы 21-Окт-2016 03:01

--Стартрек: Бесконечность / Star Trek Beyond--«Fifty year. One legacy»-- Производство: США, Bad Robot, Paramount Pictures, Perfect Storm Entertainment, Skydance Productions, Sneaky Shark
Год выпуска: 2016 г.
Жанр: фантастика, боевик, триллер, приключения
Продолжительность: 02:02:21--Мировая премьера: 20 июля 2016
Российская премьера: 21 июля 2016, «Централ Партнершип»--Перевод: Профессиональный (полное дублирование) [iTunes]--Режиссер: Джастин Лин / Justin Lin--В ролях: Крис Пайн, Закари Куинто, Саймон Пегг, Карл Урбан, Зои Салдана, Джон Чо, Антон Ельчин, Идрис Эльба, София Бутелла, Джо Таслим--Описание: События развиваются спустя 2 года после начала пятилетней миссии.
Экипаж звездного корабля «Энтерпрайз», во главе с капитаном Джеймсом Т. Кирком, были атакованы могущественной и опасной волной неизвестных пришельцев, которые уничтожают корабль, оставляя их без всего на новой неизведанной планете, где они оказываются в конфликте с новым безжалостным врагом.-- --Качество видео: HDRip
Контейнер: AVI
Видео кодек: XviD
Аудио кодек: AC3
Видео: 720x304 (2.37:1), 23.976 fps, XviD build 73 ~1309 kbps avg, 0.25 bit/pixel
Аудио: 48 kHz, AC3 Dolby Digital, 3/2 (L,C,R,l,r) + LFE ch, ~384 kbps
Cубтитры: отсутствуют.

Media Info

Общее
Полное имя : H:\Torrent2\Startrek.2016.XviD.HDRip.avi
Формат : AVI
Формат/Информация : Audio Video Interleave
Размер файла : 1,46 Гбайт
Продолжительность : 2 ч. 2 м.
Общий поток : 1702 Кбит/сек
Программа кодирования : VirtualDubMod 1.5.10.3 | www.virtualdub-fr.org || (build 2550/release)
Библиотека кодирования : VirtualDubMod build 2550/releaseВидео
Идентификатор : 0
Формат : MPEG-4 Visual
Профиль формата : Advanced [email protected]/* */
Параметр BVOP формата : 1
Параметр QPel формата : Нет
Параметр GMC формата : Без точки перехода
Параметр матрицы формата : Выборочная
Идентификатор кодека : XVID
Идентификатор кодека/Подсказка : XviD
Продолжительность : 2 ч. 2 м.
Битрейт : 1309 Кбит/сек
Ширина : 720 пикселей
Высота : 304 пикселя
Соотношение сторон : 2,35:1
Частота кадров : 23,976 (23976/1000) кадра/сек
Цветовое пространство : YUV
Субдискретизация насыщенности : 4:2:0
Битовая глубина : 8 бит
Тип развёртки : Прогрессивная
Метод сжатия : С потерями
Бит/(Пиксели*Кадры) : 0.249
Размер потока : 1,12 Гбайт (77%)
Библиотека кодирования : XviD 73Аудио
Идентификатор : 1
Формат : AC-3
Формат/Информация : Audio Coding 3
Расширение режима : CM (complete main)
Параметр Endianness формата : Big
Идентификатор кодека : 2000
Продолжительность : 2 ч. 2 м.
Вид битрейта : Постоянный
Битрейт : 384 Кбит/сек
Каналы : 6 каналов
Расположение каналов : Front: L C R, Side: L R, LFE
Частота : 48,0 КГц
Частота кадров : 31,250 кадров/сек (1536 spf)
Метод сжатия : С потерями
Размер потока : 336 Мбайт (23%)
Выравнивание : Разделение по промежуткам
Продолжительность промежутка : 42 мс. (1,00 видеокадр)
Время предзагрузки промежутка : 500 мс.

Скриншоты

Трейлер
Рейтинг@Mail.ru