Мама-прилипала / The Meddler (Лорин Скафария / Lorene Scafaria) [2015 г., драма, мелодрама, комедия, HDRip] MVO [Лицензия]

 

Создавать темы 21-Окт-2016 02:59

--Мама-прилипала / The Meddler-- Производство: США, Anonymous Content, Stage 6 Films
Год выпуска: 2015 г.
Жанр: драма, мелодрама, комедия
Продолжительность: 01:43:29--Мировая премьера: 14 сентября 2015
Российская премьера: 23 сентября 2016--Перевод: Профессиональный (многоголосый, закадровый) [Лицензия R5]--Режиссер: Лорин Скафария / Lorene Scafaria--В ролях: Сьюзен Сарандон, Роуз Бирн, Дж.К. Симмонс, Джеррод Кармайкл, Сесили Стронг, Люси Панч, Майкл МакКин, Джейсон Риттер, Сара Бэйкер, Кейси Уилсон--Описание: Пожилая вдова из Нью-Йорка следует за своей дочерью в Лос-Анджелес в надежде начать новую жизнь после смерти мужа.-- --Качество видео: HDRip
Контейнер: AVI
Видео кодек: XviD
Аудио кодек: AC3
Видео: 720x304 (2.37:1), 23.976 fps, XviD build 73 ~1624 kbps avg, 0.31 bit/pixel
Аудио: 48 kHz, AC3 Dolby Digital, 3/2 (L,C,R,l,r) + LFE ch, ~384 kbps
Cубтитры: отсутствуют.

Media Info

Общее
Полное имя : H:\Torrent2\The.Meddler.2015.MVO.HDRip.1.46Gb.avi
Формат : AVI
Формат/Информация : Audio Video Interleave
Размер файла : 1,46 Гбайт
Продолжительность : 1 ч. 43 м.
Общий поток : 2017 Кбит/секВидео
Идентификатор : 0
Формат : MPEG-4 Visual
Профиль формата : Advanced [email protected]/* */
Параметр BVOP формата : 1
Параметр QPel формата : Нет
Параметр GMC формата : Без точки перехода
Параметр матрицы формата : Выборочная
Идентификатор кодека : XVID
Идентификатор кодека/Подсказка : XviD
Продолжительность : 1 ч. 43 м.
Битрейт : 1625 Кбит/сек
Ширина : 720 пикселей
Высота : 304 пикселя
Соотношение сторон : 2,35:1
Частота кадров : 23,976 (24000/1001) кадра/сек
Цветовое пространство : YUV
Субдискретизация насыщенности : 4:2:0
Битовая глубина : 8 бит
Тип развёртки : Прогрессивная
Метод сжатия : С потерями
Бит/(Пиксели*Кадры) : 0.310
Размер потока : 1,17 Гбайт (81%)
Библиотека кодирования : XviD 73Аудио
Идентификатор : 1
Формат : AC-3
Формат/Информация : Audio Coding 3
Расширение режима : CM (complete main)
Параметр Endianness формата : Big
Идентификатор кодека : 2000
Продолжительность : 1 ч. 43 м.
Вид битрейта : Постоянный
Битрейт : 384 Кбит/сек
Каналы : 6 каналов
Расположение каналов : Front: L C R, Side: L R, LFE
Частота : 48,0 КГц
Частота кадров : 31,250 кадров/сек (1536 spf)
Метод сжатия : С потерями
Размер потока : 284 Мбайт (19%)
Выравнивание : Соединение по промежуткам
Продолжительность промежутка : 64 мс. (1,53 видеокадра)
Время предзагрузки промежутка : 192 мс.
Заголовок : Лицензия R5

Скриншоты

Трейлер
Рейтинг@Mail.ru