[ Сегодня на трекере фрилич! Идет свободное скачивание без начисления Download ]

Искусственный интеллект. Доступ неограничен / I.T. (Джон Мур / John Moore) [2016 г., триллер, драма, криминал, детектив, WEB-DL, 1080p] Dub [iTunes] + Sub (Eng) + Original (Eng)

 

Создавать темы 21-Окт-2016 02:56

-Искусственный интеллект. Доступ неограничен / I.T.-- Производство: США, Франция, Ирландия, 22h22, Fastnet Films, Friendly Films
Год выпуска: 2016 г.
Жанр: триллер, драма, криминал, детектив
Продолжительность: 01:35:32Мировая премьера: 9 сентября 2016
Российская премьера: 22 сентября 2016, «Экспонента»
Перевод: Профессиональный (полное дублирование) [iTunes]
Оригинальный аудиопоток: английскийРежиссер: Джон Мур / John Moore-В ролях: Анна Фрил, Пирс Броснан, Стефани Скотт, Микаэл Нюквист, Джеймс Фрешвилл, Клэр-Хоуп Эшити, Джейсон Бэрри, Рико Симонини-Описание: Вся жизнь Майка Ригана и его семьи построена на последних достижениях искусственного интеллекта и высоких технологий, а его «умный» дом — настоящее произведение технического искусства. Когда Майк пытается прекратить зашедшие слишком далеко отношения своего IT-специалиста Эда с юной дочерью, жизнь Ригана и его семьи оказываются под угрозой. Они попадают в ловушку созданных Риганом «умных технологий», которыми теперь управляет безумный гений Эд, вовлекая Ригана в опасную и непредсказуемую игру.-
Качество видео: WEB-DL
Контейнер: MKV
Стандарт разрешения: 1080p
Видео кодек: MPEG4 AVC
Аудио кодек: AC3
Видео: 1912x796 (2.40:1), 23.976 fps, MPEG-4 AVC, 4 552 kbps avg
Аудио: AC3, 6 ch, 384 Кбит/с, 48,0 КГц
Аудио #2: AC3, 6 ch, 384 Кбит/с, 48,0 КГц
Cубтитры: английские

Рецензия

Не жми на кнопкуДля большинства зрителей имя режиссера Джона Мура ("Омен», «Крепкий орешек: Хороший день, чтобы умереть», «В тылу врага») ассоциируется с высокобюджетными боевиками и триллерами неодназначно принимаемыми публикой и критикой. У Мура есть на данный момент один очевидный туз в рукаве — его работы до настоящего времени не проваливались с треском в прокате. Новый фильм этого режиссера называется коротко: «I.T.». Но зачем-то локализацию в России запустили под многообещающим и практически спойлерным названием «Искусственный интеллект. Доступ неограничен». Новейшая работа Мура — это крепкий драматический триллер о столкновении цифрового и аналогового, о вреде проживания в «умных домах» и о том, как опасно представлять себя в больших количествах в глобальной сети.Над сценарием к «Искусственному интеллекту» работал Уильям Уишер, известный по сценариям к «Терминаторам» и «Изгоняющим дьявола», поэтому историю фильма можно преподносить как образцовую для любой киношколы. Уишер в сценарии честно отрабатывает схему столкновения старого, аналогового в лице владельца авиакомпании Майка Рейгана (Пирс Броснан) и нового, цифрового под личиной одержимого тотальным вуайеризмом Эда Портера (Джеймс Фрешвилл). Броснану уготована роль деспотичного родителя, разъезжающего на Мазерати и готовящего свою компанию к IPO. Фрешвилл по фильму вступает в эдипово соперничество и пускается во все тяжкие, имея коды доступа ко всем системам Рейгана. Возникающее противостояние богатенького авиапапика и одержимого кодами хакера неминуемо тащит сюжет на дорогу криминала, внештатников из спецслужб и очевидной безжалостной схватки.К Броснану, как к лицу «Искусственного интеллекта», очень много вопросов после просмотра. Начиная от понижения возвраста в сюжете на десяток лет при не очень хорошей физической форме и заканчивая тем, что проживший жизнь успешный бизнесмен Майк Рейган так и не разобрался до конца, что ему действительно надо в этой самой жизни. Поэтому убедительность Броснана — это убедительность его актерского портфолио, в отличие от Джеймса Фрешвилла, очень точно попавшего в образ того, кто способен выжать все из вашей виртуальной жизни и превратить ее в настоящий кошмар. Образ компьютерного паука, сидящего перед стеной из мониторов в своем логове, безусловно, шаблонен, но показывает больше стереотипность видения Мура как режиссера. Плюс так и не раскрученная полностью спираль безумия, воспаленного от обиды в отношениях хозяин-Рейган и работник-Мур.«Искусственный интеллект» патриархален по взглядам на проблемы компьютерной безопасности и права человека на личную жизнь. Все личное уже давно стало общественным. И то, что один подонок на антидепрессантах может ужиком проскользнуть к скелетам в шкафу вполне уважаемого бизнесмена, снять через его же камеры интимное прямиком из «умного дома» и начать манипулировать жизнью семейства, превращает фильм в напряженное реалити-шоу. Мастерство создателей «Искусственного интеллекта» бесспорно позволяет говорить о нем как о картине, способной увлечь, но не открывающей каких-то новых горизонтов ни в тематике, ни в жанре. И не забудьте улыбнуться в камеру и сосчитать количество открытых аккаунтов и пароли после прочтения.7 из 10

Media Info

Общее
Уникальный идентификатор : 229536964169172875924001890003613854424 (0xACAF361560FAC8DDA6D13EE92FD72AD8)
Полное имя : F:\Искусственный интеллект\Intellekt.I.T..2016.D.WEB-DL.1080p.[pirat.ca].mkv
Формат : Matroska
Версия формата : Version 2
Размер файла : 3,58 Гбайт
Продолжительность : 1 ч. 35 м.
Общий поток : 5359 Кбит/сек
Дата кодирования : UTC 2016-10-19 23:16:21
Программа кодирования : mkvmerge v8.3.0 ('Over the Horizon') 64bit
Библиотека кодирования : libebml v1.3.1 + libmatroska v1.4.2Видео
Идентификатор : 1
Формат : AVC
Формат/Информация : Advanced Video Codec
Профиль формата : [email protected]/* */
Параметр CABAC формата : Да
Параметр ReFrames формата : 5 кадров
Идентификатор кодека : V_MPEG4/ISO/AVC
Продолжительность : 1 ч. 35 м.
Битрейт : 4591 Кбит/сек
Ширина : 1912 пикселей
Высота : 796 пикселей
Соотношение сторон : 2,40:1
Режим частоты кадров : Постоянный
Частота кадров : 23,976 (23976/1000) кадра/сек
Цветовое пространство : YUV
Субдискретизация насыщенности : 4:2:0
Битовая глубина : 8 бит
Тип развёртки : Прогрессивная
Бит/(Пиксели*Кадры) : 0.126
Размер потока : 3,07 Гбайт (86%)
Язык : English
Default : Да
Forced : Нет
Цветовой диапазон : Limited
Основные цвета : BT.709
Характеристики трансфера : BT.709
Коэффициенты матрицы : BT.709Аудио #1
Идентификатор : 2
Формат : AC-3
Формат/Информация : Audio Coding 3
Расширение режима : CM (complete main)
Параметр Endianness формата : Big
Идентификатор кодека : A_AC3
Продолжительность : 1 ч. 35 м.
Вид битрейта : Постоянный
Битрейт : 384 Кбит/сек
Каналы : 6 каналов
Расположение каналов : Front: L C R, Side: L R, LFE
Частота : 48,0 КГц
Частота кадров : 31,250 кадров/сек (1536 spf)
Метод сжатия : С потерями
Размер потока : 263 Мбайт (7%)
Язык : Russian
Default : Да
Forced : НетАудио #2
Идентификатор : 3
Формат : AC-3
Формат/Информация : Audio Coding 3
Расширение режима : CM (complete main)
Параметр Endianness формата : Big
Идентификатор кодека : A_AC3
Продолжительность : 1 ч. 35 м.
Вид битрейта : Постоянный
Битрейт : 384 Кбит/сек
Каналы : 6 каналов
Расположение каналов : Front: L C R, Side: L R, LFE
Частота : 48,0 КГц
Частота кадров : 31,250 кадров/сек (1536 spf)
Метод сжатия : С потерями
Размер потока : 263 Мбайт (7%)
Язык : English
Default : Нет
Forced : НетТекст
Идентификатор : 4
Формат : UTF-8
Идентификатор кодека : S_TEXT/UTF8
Идентификатор кодека/Информация : UTF-8 Plain Text
Продолжительность : 1 ч. 29 м.
Битрейт : 49 бит/сек
Count of elements : 1067
Размер потока : 32,3 Кбайт (0%)
Язык : English
Default : Нет
Forced : НетМеню
00:00:00.000 : en:1
00:09:51.758 : en:2
00:20:06.956 : en:3
00:29:40.654 : en:4
00:41:51.718 : en:5
00:52:15.133 : en:6
01:00:52.066 : en:7
01:14:15.911 : en:8
01:22:18.685 : en:9
01:31:58.931 : en:10

Скриншот c названием фильма

Скриншоты

-Трейлер
Рейтинг@Mail.ru