Антропоид / Anthropoid (Шон Эллис) [2016 г., триллер, военный, биография, история, HDRip] MVO

 

Создавать темы 21-Окт-2016 02:50

-Антропоид / Anthropoid-- -Производство: Чехия, Великобритания, Франция / 22h22, Liddell Entertainment, Lucky Man Films
Год выпуска: 2016 г.
Жанр: триллер, военный, биография, история
Продолжительность: 02:01:04
Мировая премьера: 1 июля 2016
Перевод: Любительский (многоголосый, закадровый) [Синема УС]--Режиссер: Шон Эллис / Sean Ellis-В ролях: Джейми Дорнан, Киллиан Мёрфи, Брайан Каспе, Карел Гержманек, Хана Фрейкова, Шон Махон, Жан Хайек, Марчин Дорочиньский, Тоби Джонс-Описание: Картина рассказывает о ликвидации в годы Второй мировой войны одного из самых зловещих нацистских преступников, начальника Главного управления имперской безопасности третьего рейха Рейнхарда Гейдриха, который при жизни получил прозвище «Пражский мясник».- -Качество видео: HDRip
Контейнер: AVI
Видео кодек: XviD
Аудио кодек: AC3
Видео: 720x304 (2.37:1), 23.976 fps, XviD build 50 ~1417 kbps avg, 0.27 bit/pixel
Аудио: 48 kHz, AC3 Dolby Digital, 2/0 (L,R) ch, ~192 kbps
Cубтитры: отсутствуют

Доп. информация

присутствуют аудио и видео вставки рекламы.

Media Info

Anthropoid.2016.P.HDRip.14OOMB.avi
Формат : AVI
Формат/Информация : Audio Video Interleave
Размер файла : 1,37 Гбайт
Продолжительность : 2 ч. 1 м.
Общий поток : 1619 Кбит/сек
Программа кодирования : VirtualDubMod 1.5.10.2 (build 2540/release)
Библиотека кодирования : VirtualDubMod build 2540/releaseВидео
Идентификатор : 0
Формат : MPEG-4 Visual
Профиль формата : Advanced [email protected]/* */
Параметр BVOP формата : 2
Параметр QPel формата : Нет
Параметр GMC формата : Без точки перехода
Параметр матрицы формата : Выборочная
Идентификатор кодека : XVID
Идентификатор кодека/Подсказка : XviD
Продолжительность : 2 ч. 1 м.
Битрейт : 1417 Кбит/сек
Ширина : 720 пикселей
Высота : 304 пикселя
Соотношение сторон : 2,35:1
Частота кадров : 23,976 (24000/1001) кадра/сек
Цветовое пространство : YUV
Субдискретизация насыщенности : 4:2:0
Битовая глубина : 8 бит
Тип развёртки : Прогрессивная
Метод сжатия : С потерями
Бит/(Пиксели*Кадры) : 0.270
Размер потока : 1,20 Гбайт (88%)
Библиотека кодирования : XviD 1.2.1 (UTC 2008-12-04)Аудио
Идентификатор : 1
Формат : AC-3
Формат/Информация : Audio Coding 3
Расширение режима : CM (complete main)
Параметр Endianness формата : Big
Идентификатор кодека : 2000
Продолжительность : 2 ч. 1 м.
Вид битрейта : Постоянный
Битрейт : 192 Кбит/сек
Каналы : 2 канала
Расположение каналов : Front: L R
Частота : 48,0 КГц
Частота кадров : 31,250 кадров/сек (1536 spf)
Метод сжатия : С потерями
Размер потока : 166 Мбайт (12%)
Выравнивание : Разделение по промежуткам
Продолжительность промежутка : 42 мс. (1,00 видеокадр)
Время предзагрузки промежутка : 500 мс.

Скриншоты

Рейтинг@Mail.ru