Светская жизнь / Cafe Society (Вуди Аллен / Woody Allen) [2016 г., Лирическая комедия, BDRip, 720p] Dub [RUS iTunes] + Dub [UKR iTunes] + Original (Eng) + Sub (Eng)

 

Создавать темы 20-Окт-2016 05:12

-Светская жизнь / Cafe Society-- Производство: США, FilmNation Entertainment, Gravier Productions, Perdido Productions
Год выпуска: 2016 г.
Жанр: Лирическая комедия
Продолжительность: 01:35:55Мировая премьера: 11 мая 2016
Российская премьера: 21 июля 2016, «Вольга»
Дата выхода DVD: 1 декабря 2016, «НД Плэй»
Перевод: Профессиональный (полное дублирование) [RUS iTunes]
Перевод 2: Профессиональный (полное дублирование) [UKR iTunes]
Оригинальный аудиопоток: английскийРежиссер: Вуди Аллен / Woody Allen-В ролях: Дженни Берлин (Rose Dorfman), Стив Карелл (Phil Stern), Джесси Айзенберг (Bobby), Кристен Стюарт (Vonnie), Блейк Лайвли (Veronica), Паркер Поузи (Rad), Кори Столл (Ben Dorfman), Кен Стотт (Marty Dorfman), Анна Кэмп (Candy), Пол Шнайдер (Steve), Шерил Ли (Karen Stern), Тони Сирико (Vito)-Описание: 1930-е годы. Молодой человек приезжает из Нью-Йорка в Голливуд в надежде найти работу в киноиндустрии. В Лос-Анджелесе он влюбляется и обнаруживает себя в самом центре водоворота бурной светской жизни и событий, определивших дух того времени.-
Качество видео: BDRip
Контейнер: MKV
Стандарт разрешения: 720p
Видео кодек: MPEG4 AVC
Аудио кодек: AC3
Видео: 1280x640, 6284 Кbit/s, 23.976 fps
Аудио: 48 kHz, AC3, 5.1, 384 Kbps
Аудио #2: 48 kHz, AC3, 5.1, 384 Kbps
Аудио #3: 48 kHz, AC3, 5.1, 640 kbpsCубтитры: английские
Формат субтитров: softsub (SSA/ASS)
Доп. информация о субтитрах: включаемые

Доп. информация

Джесси Айзенберг ранее снялся в фильме Вуди Аллена Римские приключения (2012 год).
Это уже третий раз, когда Кристен Стюарт и Джесси Айзенберг снимаются вместе. Ранее они сыграли в фильмах Парк культуры и отдыха (2009) и Ультраамериканцы (2015).
Это первая работа Вуди Аллена снятая в цифровом формате с использованием Sony Cinealta F65.
Стив Карелл заменил Брюса Уиллиса после того, как съемки уже начались. Сперва сообщалось, что причиной ухода Уиллиса стала занятость в другом проекте, но позже выяснилось, что его уволили, поскольку Вуди Аллен и вся съемочная группа больше не могли терпеть его поведение и неспособность запоминать свои реплики. Это вторая совместная работа Карелла с Алленом, так ранее он снялся у режиссера в фильме Мелинда и Мелинда (2004).
Кори Столл ранее снялся в фильме Вуди Аллена Полночь в Париже (2011).
Это первый фильм Вуди Аллена за последние восемь лет, прокатом которого не будет заниматься Sony Pictures Classics.
Вуди Аллен впервые работает с оператором Витторио Стораро.
Это первый фильм Вуди Аллена, снятый в формате 2:00:1 — такое соотношение сторон обычно используется оператором Витторио Стораро.
Джесси Айзенберг, Кори Столл, Стив Карелл, Паркер Поузи и Тони Сирико — все уже снимались у Аллена.
Паркер Поузи ранее снялась у Аллена в фильме Иррациональный человек (2015 год).

Рецензия

Что посмотреть хмурым осенним вечером, чтобы развеяться и посмеяться? Конечно, Вуди Аллена! Благо, когда идешь на очередной его фильм, можешь быть уверена — будут хорошие шутки, интересный сюжет и сплошь знакомые лица. Уже много десятилетий мастер не изменяет себе. Вот и «Светская жизнь» — образцовый его фильм.Действие происходит в тридцатые в Америке. Хороший мальчик из Нью-Йорка по имени Бобби приезжает покорять Лос-Анджелес с помощью своего дяди Фила, влиятельного агента. Здесь он сталкивается одновременно с мечтой и реальностью, которые воплощены в одной девушке Вонни.«Светская жизнь» — набор ярких образов и коротких скетчей. Причем в половине случаев не оставляет ощущение, что ты все это где-то уже видел. Например, у того же Вуди Аллена. И эту семью нью-йоркских евреев, и эти вечеринки с актерами у калифорнийского бассейна, и эти диалоги о высоком. И все равно смешно!Актеры прекрасные! Джесси Айзенберг бесподобен в роли мальчика из семьи нью-йоркских евреев и очень сильно меняется от Лос-Анджелеса к Нью-Йорку. Кристен Стюарт совсем не похожа на деревянную подружку вампира — видимо, она и правда неплохая актриса. Удивлена. Блейк Лайвли, как всегда, великолепна. Она украшает собой любой фильм, причем ей для этого даже не надо ничего делать. Но больше всех мне понравился дядя Фил — он одновременно и комический, и трагический, и легко затмевает своего племянника.В целом «Светская жизнь» — очень грамотный выбор на вечер. Хорошее настроение с толикой светлой грусти — о собственных историях любви — обеспечено.

Media Info

Общее
Уникальный идентификатор : 248775825403365834710149839083918629736 (0xBB287B2D326536DC86DAA419E4089B68)
Полное имя : F:\Светская жизнь\Cafe Society.2016.BDRip.720p.[pirat.ca].mkv
Формат : Matroska
Версия формата : Version 2
Размер файла : 5,16 Гбайт
Продолжительность : 1 ч. 36 м.
Общий поток : 7694 Кбит/сек
Дата кодирования : UTC 2016-10-18 10:53:33
Программа кодирования : mkvmerge v5.3.0 ('I could have danced') built on Feb 9 2012 10:38:07
Библиотека кодирования : libebml v1.2.3 + libmatroska v1.3.0
Обложка : Yes
Attachments : cover.jpgВидео
Идентификатор : 1
Формат : AVC
Формат/Информация : Advanced Video Codec
Профиль формата : [email protected]/* */
Параметр CABAC формата : Да
Параметр ReFrames формата : 10 кадров
Идентификатор кодека : V_MPEG4/ISO/AVC
Продолжительность : 1 ч. 36 м.
Битрейт : 6133 Кбит/сек
Ширина : 1280 пикселей
Высота : 640 пикселей
Соотношение сторон : 2,000
Режим частоты кадров : Постоянный
Частота кадров : 23,976 (24000/1001) кадра/сек
Цветовое пространство : YUV
Субдискретизация насыщенности : 4:2:0
Битовая глубина : 8 бит
Тип развёртки : Прогрессивная
Бит/(Пиксели*Кадры) : 0.312
Размер потока : 4,12 Гбайт (80%)
Библиотека кодирования : x264 core 146 r2538 121396c
Настройки программы : cabac=1 / ref=10 / deblock=1:-3:-3 / analyse=0x3:0x133 / me=umh / subme=10 / psy=1 / psy_rd=1.00:0.00 / mixed_ref=1 / me_range=32 / chroma_me=1 / trellis=2 / 8x8dct=1 / cqm=0 / deadzone=21,11 / fast_pskip=0 / chroma_qp_offset=-2 / threads=6 / lookahead_threads=1 / sliced_threads=0 / nr=0 / decimate=0 / interlaced=0 / bluray_compat=0 / constrained_intra=0 / bframes=8 / b_pyramid=2 / b_adapt=2 / b_bias=0 / direct=3 / weightb=1 / open_gop=0 / weightp=2 / keyint=250 / keyint_min=24 / scenecut=40 / intra_refresh=0 / rc=crf / mbtree=0 / crf=15.0 / qcomp=0.60 / qpmin=0 / qpmax=69 / qpstep=4 / ip_ratio=1.35 / pb_ratio=1.25 / aq=3:0.80
Язык : English
Default : Да
Forced : НетАудио #1
Идентификатор : 2
Формат : AC-3
Формат/Информация : Audio Coding 3
Расширение режима : CM (complete main)
Параметр Endianness формата : Big
Идентификатор кодека : A_AC3
Продолжительность : 1 ч. 36 м.
Вид битрейта : Постоянный
Битрейт : 384 Кбит/сек
Каналы : 6 каналов
Расположение каналов : Front: L C R, Side: L R, LFE
Частота : 48,0 КГц
Частота кадров : 31,250 кадров/сек (1536 spf)
Метод сжатия : С потерями
Размер потока : 264 Мбайт (5%)
Заголовок : iTunes
Язык : Russian
Default : Да
Forced : НетАудио #2
Идентификатор : 3
Формат : AC-3
Формат/Информация : Audio Coding 3
Расширение режима : CM (complete main)
Параметр Endianness формата : Big
Идентификатор кодека : A_AC3
Продолжительность : 1 ч. 36 м.
Вид битрейта : Постоянный
Битрейт : 384 Кбит/сек
Каналы : 6 каналов
Расположение каналов : Front: L C R, Side: L R, LFE
Частота : 48,0 КГц
Частота кадров : 31,250 кадров/сек (1536 spf)
Метод сжатия : С потерями
Размер потока : 264 Мбайт (5%)
Заголовок : Дубляж, iTunes
Язык : Ukrainian
Default : Нет
Forced : Нет
Statistics Tags Issue : mkvmerge v9.0.1 ('Obstacles') 64bit 2016-10-18 04:09:22 / mkvmerge v5.3.0 ('I could have danced') built on Feb 9 2012 10:38:07 2016-10-18 10:53:33
FromStats_BitRate : 384000
FromStats_Duration : 01:36:04.512000000
FromStats_FrameCount : 180141
FromStats_StreamSize : 276696576Аудио #3
Идентификатор : 4
Формат : AC-3
Формат/Информация : Audio Coding 3
Расширение режима : CM (complete main)
Параметр Endianness формата : Big
Идентификатор кодека : A_AC3
Продолжительность : 1 ч. 36 м.
Вид битрейта : Постоянный
Битрейт : 640 Кбит/сек
Каналы : 6 каналов
Расположение каналов : Front: L C R, Side: L R, LFE
Частота : 48,0 КГц
Частота кадров : 31,250 кадров/сек (1536 spf)
Метод сжатия : С потерями
Размер потока : 440 Мбайт (8%)
Заголовок : Original
Язык : English
Default : Нет
Forced : НетТекст
Идентификатор : 5
Формат : UTF-8
Идентификатор кодека : S_TEXT/UTF8
Идентификатор кодека/Информация : UTF-8 Plain Text
Заголовок : Full
Язык : English
Default : Нет
Forced : НетМеню
00:00:00.000 : en:Chapter 01
00:08:35.765 : en:Chapter 02
00:16:39.790 : en:Chapter 03
00:26:28.461 : en:Chapter 04
00:32:30.990 : en:Chapter 05
00:43:12.381 : en:Chapter 06
00:54:03.740 : en:Chapter 07
01:02:38.629 : en:Chapter 08
01:10:05.618 : en:Chapter 09
01:14:40.767 : en:Chapter 10
01:20:45.924 : en:Chapter 11
01:31:57.178 : en:Chapter 12

Скриншот c названием фильма

Скриншоты

-Трейлер
Рейтинг@Mail.ru