Убойные каникулы / Tucker & Dale vs Evil (Эли Крэйг /Eli Craig) [2010 г., ужасы, комедия, BDRemux, 1080p] Dub

 

Создавать темы 20-Окт-2016 04:45

-Убойные каникулы / Tucker & Dale vs Evil
«Куча жертв... ни одного маньяка»
-- Производство: Канада
Год выпуска: 2010 г.
Жанр: ужасы, комедия
Продолжительность: 01:28:39Перевод: Профессиональный (полное дублирование) [R5]
Режиссер: Эли Крэйг /Eli Craig-В ролях: Тайлер Лэбин, Алан Тьюдик, Катрина Боуден, Джесси Мосс, Филип Грэйнджер, Брэндон Джей МакЛарен, Кристи Лэйн, Челан Симмонс, Трэвис Нельсон, Алекс Арсено-Описание: Группа студентов колледжа отправляется за город, чтобы вовсю оторваться на выходных: попить пивка, поплавать в озере и подышать чистым лесным воздухом. Но уже в первый день они сталкиваются с неотесанными фермерами Такером и Дэйлом, также решившими как следует оттянуться на природе. Приняв этих диковатых, но, в сущности, симпатичных ребят за «злобных местных», горожане решают дать деревенщине жесткий отпор. Но с каждым их шагом становится только хуже...- -Качество видео: BDRemux
Источник: Tucker & Dale vs Evil 2010 Blu-ray GER 1080p AVC DTS-HD MA 5.1 (tnx maltby)
Контейнер: TS
Стандарт разрешения: 1080p
Видео кодек: H.264/AVC
Аудио кодек: DTS
Видео: 1920x1080 at 23.976 fps, ~23.4 Mbps avg
Аудио: Russian: 48 kHz, DTS, 3/2 (L,C,R,l,r) + LFE ch, ~1536.00 kbps avg |Дубляж, R5|
Cубтитры: отсутствуют

Media Info

Код:
Format : MPEG-TS
File size : 16.3 GiB
Duration : 1h 28mn
Overall bit rate mode : Variable
Overall bit rate : 26.2 Mbps
Maximum Overall bit rate : 35.5 MbpsVideo
ID : 4113 (0x1011)
Menu ID : 1 (0x1)
Format : AVC
Format/Info : Advanced Video Codec
Format profile : [email protected]/* */
Format settings, CABAC : Yes
Format settings, ReFrames : 4 frames
Codec ID : 27
Duration : 1h 28mn
Bit rate mode : Variable
Bit rate : 23.4 Mbps
Maximum bit rate : 40.0 Mbps
Width : 1 920 pixels
Height : 1 080 pixels
Display aspect ratio : 16:9
Frame rate : 23.976 fps
Color space : YUV
Chroma subsampling : 4:2:0
Bit depth : 8 bits
Scan type : Progressive
Bits/(Pixel*Frame) : 0.471
Stream size : 14.5 GiB (89%)
Color primaries : BT.709
Transfer characteristics : BT.709
Matrix coefficients : BT.709
Color range : LimitedAudio
ID : 4352 (0x1100)
Menu ID : 1 (0x1)
Format : DTS
Format/Info : Digital Theater Systems
Mode : 16
Format settings, Endianness : Big
Codec ID : 130
Duration : 1h 28mn
Bit rate mode : Constant
Bit rate : 1 510 Kbps
Channel(s) : 6 channels
Channel positions : Front: L C R, Side: L R, LFE
Sampling rate : 48.0 KHz
Bit depth : 24 bits
Compression mode : Lossy
Stream size : 957 MiB (6%)
Language : Russian

Скриншот c названием фильма

Скриншоты

Рейтинг@Mail.ru