[ Сегодня на трекере фрилич! Идет свободное скачивание без начисления Download ]

Нарко (Барыги) / Narcos / Сезон: 2 / Серии: 1-8 (10) (Андрес Байс / Andrés Baiz, ...) [2016 г., криминал, драма, WEB-DLRip, 1080p] MVO (LostFilm) + Original (Eng) + Sub (Eng) [Обновляемая]

 

Создавать темы 20-Окт-2016 04:37

-Нарко (Барыги) / Narcos
«There's no business like blow business»
(2 сезон)
-- Производство: США
Жанр: криминал, драма
Год выпуска: 2016 г.
Продолжительность: 8x ~00:50:00Перевод: Профессиональный (многоголосый, закадровый) [LostFilm]
Оригинальный аудиопоток: английскийРежиссер: Андрес Байс / Andrés Baiz, Фернандо Коимбра / Fernando Coimbra, ...-В ролях: Вагнер Моура, Бойд Холбрук, Педро Паскаль, Джоанна Кристи, Морис Комт, Jasón Chad, Паулина Гайтан, Даниэль Кеннеди, Ричард Т. Джонс, Хуан Мурсия, ...-Описание: Второй сезон сериала "Нарко" продолжит хронологически восстанавливать события жизни Пабло Эскобара. История ведется не только со стороны Эскобара, но и с точки зрения агентов специальных служб, которые непрерывно пытаются его обезвредить. Причем вопрос уже стоит не в попытках посадить наркобарона в тюрьму, а именно уничтожить его.- - -Качество видео: WEB-DLRip
Контейнер: MKV
Стандарт разрешения: 1080p
Видео кодек: H.264/AVC
Аудио кодек: AC3
Видео: 1920×1080 at 23.976 fps, ~11,6 Mbps avg
Аудио: Russian: 48 kHz, AC3, 3/2 (L,C,R,l,r) + LFE ch, ~384.00 kbps avg |Многоголосый закадровый, LostFilm|
Аудио #2: English: 48 kHz, AC3, 3/2 (L,C,R,l,r) + LFE ch, ~384.00 kbps avgCубтитры: English (Full), English (вшитые неотключаемые (на испанскую речь))

Список серий

Episode 01. Free at Last / Свободен наконец
Episode 02. Cambalache / Грошовый обмен
Episode 03. Our Man in Madrid / Наш человек в Мадриде
Episode 04: The Good, the Bad, and the Dead / Хороший, плохой, мёртвый
Episode 05: The Enemies of My Enemy / Враги моего врага
Episode 06: Los Pepes / Лос Пепес
Episode 07: Deutschland 93 / Германия 93
Episode 08: Exit El Patrón / Выход хозяина

Episode 09: Nuestra Finca / Наша ферма
Episode 10: Al Fin Cayó! / Наконец-то повержен

Media Info

Код:
Format : Matroska
Format version : Version 2
File size : 4.66 GiB
Duration : 53mn 2s
Overall bit rate : 12.6 Mbps
Movie name : Narcos | Season 2 (2016) | 01: Free at Last (Release for HDCLUB)
Encoded date : UTC 2016-09-15 19:06:17
Writing application : mkvmerge v8.3.0 ('Over the Horizon') 64bit
Writing library : libebml v1.3.1 + libmatroska v1.4.2Video
ID : 1
Format : AVC
Format/Info : Advanced Video Codec
Format profile : [email protected]/* */
Format settings, CABAC : Yes
Format settings, ReFrames : 4 frames
Codec ID : V_MPEG4/ISO/AVC
Duration : 53mn 2s
Bit rate : 11.6 Mbps
Width : 1 920 pixels
Height : 1 080 pixels
Display aspect ratio : 16:9
Frame rate mode : Constant
Frame rate : 23.976 fps
Color space : YUV
Chroma subsampling : 4:2:0
Bit depth : 8 bits
Scan type : Progressive
Bits/(Pixel*Frame) : 0.233
Stream size : 4.29 GiB (92%)
Title : Narcos | Season 2 (2016) | 01: Free at Last (Наконец-то свободен)
Writing library : x264 core 144 r2525 40bb568
Encoding settings : cabac=1 / ref=4 / deblock=1:-3:-3 / analyse=0x3:0x133 / me=umh / subme=10 / psy=1 / psy_rd=1.00:0.00 / mixed_ref=1 / me_range=48 / chroma_me=1 / trellis=2 / 8x8dct=1 / cqm=0 / deadzone=21,11 / fast_pskip=1 / chroma_qp_offset=-2 / threads=12 / lookahead_threads=2 / sliced_threads=0 / nr=0 / decimate=1 / interlaced=0 / bluray_compat=0 / constrained_intra=0 / bframes=8 / b_pyramid=2 / b_adapt=2 / b_bias=0 / direct=3 / weightb=1 / open_gop=0 / weightp=2 / keyint=250 / keyint_min=23 / scenecut=40 / intra_refresh=0 / rc=crf / mbtree=0 / crf=18.5 / qcomp=0.60 / qpmin=0 / qpmax=69 / qpstep=4 / ip_ratio=1.30 / pb_ratio=1.20 / aq=3:0.80
Language : English
Default : Yes
Forced : NoAudio #1
ID : 2
Format : AC-3
Format/Info : Audio Coding 3
Mode extension : CM (complete main)
Format settings, Endianness : Big
Codec ID : A_AC3
Duration : 53mn 2s
Bit rate mode : Constant
Bit rate : 384 Kbps
Channel(s) : 6 channels
Channel positions : Front: L C R, Side: L R, LFE
Sampling rate : 48.0 KHz
Bit depth : 16 bits
Compression mode : Lossy
Stream size : 146 MiB (3%)
Title : DD 5.1 @ 384 kbps (LostFilm)
Language : Russian
Default : Yes
Forced : NoAudio #2
ID : 3
Format : AC-3
Format/Info : Audio Coding 3
Mode extension : CM (complete main)
Format settings, Endianness : Big
Codec ID : A_AC3
Duration : 53mn 2s
Bit rate mode : Constant
Bit rate : 384 Kbps
Channel(s) : 6 channels
Channel positions : Front: L C R, Side: L R, LFE
Sampling rate : 48.0 KHz
Bit depth : 16 bits
Compression mode : Lossy
Stream size : 146 MiB (3%)
Title : DD 5.1 @ 384 kbps
Language : English
Default : No
Forced : NoText
ID : 4
Format : UTF-8
Codec ID : S_TEXT/UTF8
Codec ID/Info : UTF-8 Plain Text
Language : English
Default : No
Forced : No

Скриншот c названием фильма

Скриншоты

Рейтинг@Mail.ru