[ Сегодня на трекере фрилич! Идет свободное скачивание без начисления Download ]

Крэйзи / Havoc (Барбара Коппл / Barbara Kopple) [2005 г., триллер, драма, криминал, WEB-DL, 720p] Dub + Original (Eng)

 

Создавать темы 20-Окт-2016 04:32

-Крэйзи / Havoc-- Производство: США, Германия, Media 8 Entertainment, Stuhall Productions, S.R.O. Entertainment AG
Год выпуска: 2005 г.
Жанр: триллер, драма, криминал
Продолжительность: 01:25:30Мировая премьера: 26 июня 2005
Российская премьера: 13 октября 2005, «West»
Дата выхода DVD: 5 декабря 2005, «West Video»
Перевод: Профессиональный (полное дублирование) [R5]
Оригинальный аудиопоток: английскийРежиссер: Барбара Коппл / Barbara Kopple-В ролях: Энн Хэтэуэй, Бижу Филлипс, Фредди Родригес, Шири Эпплби, Майкл Бин, Джозеф Гордон-Левитт, Мэтью О’Лири, Лора Сан Джакомо, Майк Фогель, Рэймонд Крус-Описание: Эллисон и Эмили из богатого района, тусуясь в местной «банде», однажды решают усилить ощущения в Восточном Лос-Анджелесе — районе реальных городских гангстеров!.. Они получили там все, что хотели… кроме второго шанса.-
Качество видео: WEB-DL
Контейнер: MKV
Стандарт разрешения: 720p
Видео кодек: MPEG4 AVC
Аудио кодек: AC3
Видео: 1280x718, 4107 kbps, 23,976 fps
Аудио: 48,0 kHz, AC3, 6 ch, 448 kbps, CBR
Аудио #2: 48,0 kHz, AC3, 6 ch, 384 kbps, CBR
Cубтитры: отсутствуют

Доп. информация

В 1995 году будущий фильм носил название «The Powers That Be» ("Власть имущие»).
Сценарист фильма Джессика Каплан погибла ещё до начала съемок 6 июня 2003 года в авиакатастрофе, самолетом управлял дядя Джессики. Фильм посвящен ей.
Более правильный перевод названия (следуя из оригинального «Havoc») — «Опустошение».
Первоначально на роли Эллисон и Эмили планировалось взять Мэнди Мур и Джену Мэлоун. Эллисон так же могла сыграть Кейт Босворт.
Сценарий фильма пылился на полках New Line Cinema в течение семи лет.
Песня, которую Эллисон поет на вечеринке, «How Do You Want It?» Тупака Шакура. А после употребления наркотиков Эллисон и Эмили исполняют партию Амила в композиции «Can I Get A…» Джей-Зи.

Рецензия

Другая роль…Другая роль Энн Хэтэуэй — другое амплуа, иные эмоции — совершенно новый уровень для этой молодой актрисы. Фильм для нее стал отличным выходом в мир драмы.Фильм о двух противоположных мирах, которые хотят объединиться или поменяться местами. Мажоры и старающиеся каждый день выжить в тяжелых условиях люди. Все они хотят стать такими как другие — бедняки, продавая наркотики, мечтают разбогатеть, а богатые ищут новых ощущений и экстрима в опасных кварталах.Первые минуты заставляют поверить в счастье избалованных деньгами подростков. Но… с каждой минутой, с каждым следующим эпизодом это «счастье» сдувается как воздушный шарик, а к концу превращается в страдания. Подростки бесстрашно идут вперед, но при первой же опасности они прячутся за большие кошельки своих родителей. Они не умеют признавать свои ошибки, а их причину садят за решетку. Они играют в игры с огнем, который в любой момент может их целиком поглотить. И огонь их поглощает…Посмотрев фильм, можно смело заключить, что все должны оставаться на своих местах, либо стремиться к лучшей жизни иным, некриминальным путем. Богатые живут в своих особняках с охраной, бедные охраняют себя от «денежных мешков», которые покупают души за грязные деньги.Хотя… «Лучше сгореть, чем увянуть». K.D.Cobain10 из 10

Media Info

oбщее
Уникальный идентификатор : 186917409029451802126167209616566480442 (0x8C9EFBC7D10EC48F930CB3CDA5F16E3A)
Полное имя : C:\герои 7\Havoc\Havoc.2005.WEB-DL.720р.[pirat.ca].mkv
Формат : Matroska
Версия формата : Version 4 / Version 2
Размер файла : 3,01 Гбайт
Продолжительность : 1 ч. 25 м.
Общий поток : 5039 Кбит/сек
Название фильма : Крэйзи / Havoc
Дата кодирования : UTC 2016-10-17 17:31:00
Программа кодирования : mkvmerge v6.6.0 ('The Edge Of The In Between') built on Dec 1 2013 17:55:00
Библиотека кодирования : libebml v1.3.0 + libmatroska v1.4.1Видео
Идентификатор : 1
Формат : AVC
Формат/Информация : Advanced Video Codec
Профиль формата : [email protected]/* */
Параметр CABAC формата : Нет
Параметр ReFrames формата : 2 кадра
Идентификатор кодека : V_MPEG4/ISO/AVC
Продолжительность : 1 ч. 25 м.
Битрейт : 4107 Кбит/сек
Ширина : 1280 пикселей
Высота : 718 пикселей
Соотношение сторон : 16:9
Режим частоты кадров : Постоянный
Частота кадров : 23,976 кадра/сек
Цветовое пространство : YUV
Субдискретизация насыщенности : 4:2:0
Битовая глубина : 8 бит
Тип развёртки : Прогрессивная
Бит/(Пиксели*Кадры) : 0.186
Размер потока : 2,45 Гбайт (82%)
Язык : English
Default : Да
Forced : Нет
Цветовой диапазон : Limited
Основные цвета : BT.709
Характеристики трансфера : BT.709
Коэффициенты матрицы : BT.709Аудио #1
Идентификатор : 2
Формат : AC-3
Формат/Информация : Audio Coding 3
Расширение режима : CM (complete main)
Параметр Endianness формата : Big
Идентификатор кодека : A_AC3
Продолжительность : 1 ч. 25 м.
Вид битрейта : Постоянный
Битрейт : 448 Кбит/сек
Каналы : 6 каналов
Расположение каналов : Front: L C R, Side: L R, LFE
Частота : 48,0 КГц
Частота кадров : 31,250 кадров/сек (1536 spf)
Метод сжатия : С потерями
Размер потока : 274 Мбайт (9%)
Язык : Russian
Default : Да
Forced : НетАудио #2
Идентификатор : 3
Формат : AC-3
Формат/Информация : Audio Coding 3
Расширение режима : CM (complete main)
Параметр Endianness формата : Big
Идентификатор кодека : A_AC3
Продолжительность : 1 ч. 25 м.
Вид битрейта : Постоянный
Битрейт : 384 Кбит/сек
Каналы : 6 каналов
Расположение каналов : Front: L C R, Side: L R, LFE
Частота : 48,0 КГц
Частота кадров : 31,250 кадров/сек (1536 spf)
Метод сжатия : С потерями
Размер потока : 235 Мбайт (8%)
Язык : English
Default : Нет
Forced : НетМеню
00:00:00.000 : en:Main Titles
00:04:07.000 : en:Spoiled Bored
00:10:48.000 : en:Lunch With Dad
00:14:22.000 : en:Hood Rollin'
00:19:46.000 : en:Girls Night Out
00:26:13.000 : en:East Side House Party
00:31:23.000 : en:Loneliest Girl I Know
00:35:35.000 : en:Just Looking
00:38:08.000 : en:People Live Here
00:42:05.000 : en:Jail Bird
00:45:38.000 : en:Totally Real
00:51:16.000 : en:Motel Romp
00:55:24.000 : en:The Sixteenth
00:58:36.000 : en:Dice Game
01:00:30.000 : en:Just Sex
01:04:39.000 : en:You Ain't Real
01:08:50.000 : en:Police Matter
01:10:32.000 : en:False Justice
01:18:23.000 : en:Reality Check
01:21:29.000 : en:End Credits

Скриншот c названием фильма

Скриншоты

-Трейлер
Рейтинг@Mail.ru