Наши жёны / Nos femmes (Ришар Берри / Richard Berry) [2015, Драма, Комедия, BDRip] MVO (GreenРай Studio)

 

Создавать темы 19-Окт-2016 18:56

- Наши жёны / Nos femmes - Производство: Франция
Жанр: Драма, Комедия
Режиссер: Ришар Берри
Продюсер: Тома Лангманн, Себастьен Деллуа, Эммануэль Монтамат
Актеры: Даниель Отой, Ришар Берри, Тьерри Лермитт, Полин Лефевр, Мирей Перье, Паскаль Луанж, Жозефин Берри, Мариса Бруни-Тедески, Акела Сари.
Описание:
Дружба между Максом, Полем и Симоном длится уже 35 лет и никогда не давала трещин. Каждый их них состоялся в профессии, а вот в личной жизни - не все так однозначно. Решив однажды встретиться на квартире Макса, вместе поужинать и перекинуться в карты, никто не предполагал, что на повестке будет стоять совсем иной вопрос. Симон сообщает, что убил свою жену и просит друзей создать ему алиби. Выдержит ли дружба такое испытание?


Дата мировой премьеры: 29 апреля 2015
Продолжительность: 01:36:45
Качество видео: BDRip http://my-files.ru/r53gep
Перевод: Многоголосый закадровый, профессиональный (GreenРай Studio)
Вид субтитров: Отсутствуют
Реклама: Присутствуют голосовые и текстовые вставки рекламы. Начальный рекламный ролик вырезан.
Видео: Xvid, 720x304, 24 fps, ~1660 kbps
Аудио: AC3, 2 ch, 448 kbps, CBR

МИ

Общее
Полное имя : D:\Фильмы\Мои раздачи\Наши жёны\Nawy.ZheHy.2015.P.HDRip.1.46GB.avi
Формат : AVI
Формат/Информация : Audio Video Interleave
Размер файла : 1,43 Гбайт
Продолжительность : 1 ч. 36 м.
Общий поток : 2118 Кбит/сек
Программа кодирования : VirtualDubMod 1.5.10.2 (build 2540/release)
Библиотека кодирования : VirtualDub build 35390/release
Видео
Идентификатор : 0
Формат : MPEG-4 Visual
Профиль формата : Advanced [email protected]
Параметр BVOP формата : 2
Параметр QPel формата : Нет
Параметр GMC формата : Без точки перехода
Параметр матрицы формата : Default (MPEG)
Идентификатор кодека : XVID
Идентификатор кодека/Подсказка : XviD
Продолжительность : 1 ч. 36 м.
Битрейт : 1660 Кбит/сек
Ширина : 720 пикселей
Высота : 304 пикселя
Соотношение сторон : 2,35:1
Частота кадров : 24,000 кадра/сек
Цветовое пространство : YUV
Субдискретизация насыщенности : 4:2:0
Битовая глубина : 8 бит
Тип развёртки : Прогрессивная
Метод сжатия : С потерями
Бит/(Пиксели*Кадры) : 0.316
Размер потока : 1,12 Гбайт (78%)
Библиотека кодирования : XviD 1.2.1 (UTC 2008-12-04)
Аудио
Идентификатор : 1
Формат : AC-3
Формат/Информация : Audio Coding 3
Расширение режима : CM (complete main)
Параметр Endianness формата : Big
Идентификатор кодека : 2000
Продолжительность : 1 ч. 36 м.
Вид битрейта : Постоянный
Битрейт : 448 Кбит/сек
Каналы : 2 канала
Расположение каналов : Front: L R
Частота : 48,0 КГц
Битовая глубина : 16 бит
Метод сжатия : С потерями
Задержка видео : 12 мс.
Размер потока : 310 Мбайт (21%)
Выравнивание : Разделение по промежуткам
Продолжительность промежутка : 42 мс. (1,00 видеокадр)
Время предзагрузки промежутка : 500 мс.
Скриншоты:
Рейтинг@Mail.ru