[ Сегодня на трекере фрилич! Идет свободное скачивание без начисления Download ]

Мистер Черч / Повар / Mr. Church (Брюс Бересфорд / Bruce Beresford) [2016, Драма, DVDRip] MVO (Синема УС)

 

Создавать темы 19-Окт-2016 16:21

- Мистер Черч / Повар / Mr. Church- Производство: США
Жанр: Драма
Режиссер: Брюс Бересфорд
Актеры: Эдди Мёрфи, Бритт Робертсон, Наташа МакЭлхоун, Завьер Сэмюэл, Люси Фрай, Кристиан Мэдсен, МакКенна Грейс, Натали Кофлин, Мэдисон Вульф, Линкольн Мелчер.
Описание:
Картина рассказывает о дружбе и почти семейных отношениях между двумя белыми женщинами, матерью и дочерью, и их чернокожим поваром по имени мистер Чёрч.


Рейтинг MPAA: PG-13 (детям до 13 лет просмотр нежелателен)
Дата мировой премьеры: 22 апреля 2016
Релиз от: KOSHARA
Продолжительность: 01:45:26
Качество видео: DVDRip http://my-files.ru/95o7pr
Перевод: Многоголосый закадровый, профессиональный (Синема УС)
Вид субтитров: Отсутствуют
Реклама: Присутствуют голосовые и текстовые вставки рекламы. Начальный рекламный ролик вырезан.
Видео: Xvid, 720x384, ~1641 kbps
Аудио: AC3, 2 ch, 192 kbps

МИ

Общее
Полное имя : D:\Фильмы\Мои раздачи\Мистер Черч\Mr.Church.2016.P.DVDRip.14OOMB.avi
Формат : AVI
Формат/Информация : Audio Video Interleave
Размер файла : 1,36 Гбайт
Продолжительность : 1 ч. 45 м.
Общий поток : 1842 Кбит/сек
Программа кодирования : VirtualDubMod 1.5.10.2 (build 2540/release)
Библиотека кодирования : VirtualDub build 35390/release
Видео
Идентификатор : 0
Формат : MPEG-4 Visual
Профиль формата : Advanced [email protected]
Параметр BVOP формата : 2
Параметр QPel формата : Нет
Параметр GMC формата : Без точки перехода
Параметр матрицы формата : Default (MPEG)
Идентификатор кодека : XVID
Идентификатор кодека/Подсказка : XviD
Продолжительность : 1 ч. 45 м.
Битрейт : 1641 Кбит/сек
Ширина : 720 пикселей
Высота : 384 пикселя
Соотношение сторон : 1,85:1
Частота кадров : 23,976 кадра/сек
Цветовое пространство : YUV
Субдискретизация насыщенности : 4:2:0
Битовая глубина : 8 бит
Тип развёртки : Прогрессивная
Метод сжатия : С потерями
Бит/(Пиксели*Кадры) : 0.248
Размер потока : 1,21 Гбайт (89%)
Библиотека кодирования : XviD 1.2.1 (UTC 2008-12-04)
Аудио
Идентификатор : 1
Формат : AC-3
Формат/Информация : Audio Coding 3
Расширение режима : CM (complete main)
Параметр Endianness формата : Big
Идентификатор кодека : 2000
Продолжительность : 1 ч. 45 м.
Вид битрейта : Постоянный
Битрейт : 192 Кбит/сек
Каналы : 2 канала
Расположение каналов : Front: L R
Частота : 48,0 КГц
Битовая глубина : 16 бит
Метод сжатия : С потерями
Задержка видео : 17 мс.
Размер потока : 145 Мбайт (10%)
Выравнивание : Разделение по промежуткам
Продолжительность промежутка : 42 мс. (1,00 видеокадр)
Время предзагрузки промежутка : 500 мс.
Скриншоты:
Рейтинг@Mail.ru