[ Сегодня на трекере фрилич! Идет свободное скачивание без начисления Download ]

Жасмин / Blue Jasmine (Вуди Аллен / Woody Allen) [2013 г., Комедия, драма, WEB-DLRip] Dub / iTunes

 

Создавать темы 08-Янв-2014 01:45

-Жасмин / Blue Jasmine-- Производство: США, Perdido Productions
Год выпуска: 2013 г.
Жанр: Комедия, драма
Продолжительность: 01:34:04-Мировая премьера: 26 июля 2013
Российская премьера: 26 сентября 2013, «Централ Партнершип»
Перевод: Профессиональный (полное дублирование) iTunes
Режиссер: Вуди Аллен / Woody Allen-В ролях:
Кейт Бланшетт, Салли Хокинс, Алек Болдуин, Бобби Каннавале, Питер Сарсгаард, Луис С.К., Эндрю Дайс Клэй, Дэниэл Дженкс, Майкл Стулбарг, Макс Рутерфорд-Описание:
После того как все в ее жизни разваливается на части, в том числе и брак с богатым бизнесменом, светская жительница Нью-Йорка Жасмин переезжает в скромную квартиру сестры в Сан-Франциско, чтобы попытаться взять себя в руки и жить дальше.
- -Качество видео: WEB-DLRip
Контейнер: AVI
Видео кодек: XviD
Аудио кодек: AC3
Видео: 720x400 (1.80:1), 25 fps, XviD build 50 ~1824 kbps avg, 0.25 bit/pixel
Аудио: 48 kHz, AC3 Dolby Digital, 3/2 (L,C,R,l,r) + LFE ch, ~384 kbps
Cубтитры: отсутствуют
-

Media Info

Общее
Полное имя : D:\ВИДЕО\Jasmin.2013.D.WEB-DL.Rip.1.46Gb.avi
Формат : AVI
Формат/Информация : Audio Video Interleave
Размер файла : 1,46 Гбайт
Продолжительность : 1 ч. 34 м.
Общий поток : 2218 Кбит/сек
Программа кодирования : VirtualDubMod 1.5.10.2 (build 2540/release)
Библиотека кодирования : VirtualDubMod build 2540/release
Видео
Идентификатор : 0
Формат : MPEG-4 Visual
Профиль формата : Advanced [email protected]
Параметр BVOP формата : 2
Параметр QPel формата : Нет
Параметр GMC формата : Без точки перехода
Параметр матрицы формата : Выборочная
Идентификатор кодека : XVID
Идентификатор кодека/Подсказка : XviD
Продолжительность : 1 ч. 34 м.
Битрейт : 1824 Кбит/сек
Ширина : 720 пикселей
Высота : 400 пикселей
Соотношение сторон : 16:9
Частота кадров : 25,000 кадров/сек
Цветовое пространство : YUV
Субдискретизация насыщенности : 4:2:0
Битовая глубина : 8 бит
Тип развёртки : Прогрессивная
Метод сжатия : С потерями
Бит/(Пиксели*Кадры) : 0.253
Размер потока : 1,20 Гбайт (82%)
Библиотека кодирования : XviD 1.2.1 (UTC 2008-12-04)
Аудио
Идентификатор : 1
Формат : AC-3
Формат/Информация : Audio Coding 3
Расширение режима : CM (complete main)
Параметр Endianness формата : Big
Идентификатор кодека : 2000
Продолжительность : 1 ч. 34 м.
Вид битрейта : Постоянный
Битрейт : 384 Кбит/сек
Каналы : 6 каналов
Расположение каналов : Front: L C R, Side: L R, LFE
Частота : 48,0 КГц
Битовая глубина : 16 бит
Метод сжатия : С потерями
Размер потока : 258 Мбайт (17%)
Выравнивание : Разделение по промежуткам
Продолжительность промежутка : 40 мс. (1,00 видеокадр)
Время предзагрузки промежутка : 500 мс.

Скриншоты

Яндекс.Метрика
Рейтинг@Mail.ru