Молодость по страховке / Wild Oats (Энди Теннант/ Andy Tennant) [2015 г., драма, комедия, приключения, боевик, WEB-DL, 1080p] Dub [iTunes]

 

Создавать темы 18-Окт-2016 04:35

Молодость по страховке / Wild Oats-- Производство: Wild Pictures, Alliance Cinema, Aloe Entertainment, Mountaintop Productions
Год выпуска: 2015 г.
Жанр: драма, комедия, приключения, боевик
Продолжительность: 01:27:39Мировая премьера: 22 августа 2016
Российская премьера: 22 сентября 2016
Перевод: Профессиональный (полное дублирование) [ iTunes]
Режиссер: Энди Теннант/ Andy Tennant-В ролях: Деми Мур, Джессика Лэнг, Ширли МакЛейн, Сантьяго Сегура, Билли Коннолли, Ховард Хессеман, Мэтт Уолш, Джадд Хёрш, Стефани Бичем, Ребекка Да Коста, Джей Хейден-Описание: Из-за канцелярской ошибки главная героиня по имени Ева получает не привычные $900, а фантастические $900,000 социальной помощи. Не теряя не минуты, она, прихватив с собой лучшую подругу Мэдди, отправляется навстречу лучшему приключению в своей жизни…-
Качество видео: WEB-DL
Контейнер: MKV
Стандарт разрешения: 1080p
Видео кодек: MPEG4 AVC
Аудио кодек: AC3
Видео: 1920x804 (2.40:1), 4 494 kbps avg, 25.000 fps
Аудио: 384 kbps, 3/2 (L,C,R,l,r) + LFE ch, 48 kHz
Cубтитры: отсутствуют

Media Info

Общее
Уникальный идентификатор : 233450067062204480895339633134029067653 (0xAFA0D8F3A023B13EA5159D30125D5585)
Полное имя : C:\Users\Jora\Desktop\Molodost.po.CtraxoBke.2016.D.WEB-DL.1080p.mkv
Формат : Matroska
Версия формата : Version 4 / Version 2
Размер файла : 3,05 Гбайт
Продолжительность : 1 ч. 27 м.
Общий поток : 4977 Кбит/сек
Дата кодирования : UTC 2016-10-16 23:05:39
Программа кодирования : mkvmerge v6.5.0 ('Isn't she lovely') built on Oct 20 2013 12:50:05
Библиотека кодирования : libebml v1.3.0 + libmatroska v1.4.1Видео
Идентификатор : 1
Формат : AVC
Формат/Информация : Advanced Video Codec
Профиль формата : [email protected]/* */
Параметр CABAC формата : Да
Параметр ReFrames формата : 5 кадров
Параметр GOP формата : N=1
Идентификатор кодека : V_MPEG4/ISO/AVC
Продолжительность : 1 ч. 27 м.
Битрейт : 4494 Кбит/сек
Ширина : 1920 пикселей
Высота : 804 пикселя
Соотношение сторон : 2,40:1
Режим частоты кадров : Постоянный
Частота кадров : 25,000 кадров/сек
Цветовое пространство : YUV
Субдискретизация насыщенности : 4:2:0
Битовая глубина : 8 бит
Тип развёртки : Прогрессивная
Бит/(Пиксели*Кадры) : 0.116
Размер потока : 2,75 Гбайт (90%)
Язык : English
Default : Да
Forced : Нет
Цветовой диапазон : Limited
Основные цвета : BT.709
Характеристики трансфера : BT.709
Коэффициенты матрицы : BT.709Аудио
Идентификатор : 2
Формат : AC-3
Формат/Информация : Audio Coding 3
Расширение режима : CM (complete main)
Параметр Endianness формата : Big
Идентификатор кодека : A_AC3
Продолжительность : 1 ч. 27 м.
Вид битрейта : Постоянный
Битрейт : 384 Кбит/сек
Каналы : 6 каналов
Расположение каналов : Front: L C R, Side: L R, LFE
Частота : 48,0 КГц
Частота кадров : 31,250 кадров/сек (1536 spf)
Метод сжатия : С потерями
Размер потока : 241 Мбайт (8%)
Язык : Russian
Default : Да
Forced : Нет

Скриншот c названием фильма

Скриншоты

-Трейлер
Рейтинг@Mail.ru