Camp Rock 2: Отчетный концерт / Camp Rock 2: The Final Jam (Пол Хоэн / Paul Hoen) [2010 г., мюзикл, мелодрама, комедия, семейный, BDRip] [Extended Edition] Dub

 

Создавать темы 18-Окт-2016 04:32

-Camp Rock 2: Отчетный концерт / Camp Rock 2: The Final Jam / Extended Edition-- Производство: США, Walt Disney Television, ...
Год выпуска: 2010 г.
Жанр: мюзикл, мелодрама, комедия, семейный
Продолжительность: 01:44:10Мировая премьера: 3 сентября 2010
Российская премьера: 15 ноября 2010
Дата выхода DVD: 30 августа 2011, «Уолт Дисней Компани СНГ»
Перевод: Профессиональный (полное дублирование) [BD CEE EUR]
Режиссер: Пол Хоэн / Paul Hoen-В ролях: Деми Ловато, Джо Джонас, Ник Джонас, Кевин Джонас, Дэниэл Фазерс, Дэниэл Кэш, Мария Кэнелс-Баррера, Хлоя Бриджес, Мэттью «Мдот» Финли, Меган Йётте Мартин-Описание: Митчи, Шейн, Джейсон, Нейт и их друзья возвращаются в музыкальный лагерь «Саmр Rock», чтобы весело провести еще одни летние каникулы. Однако вскоре они узнают, что на другом берегу озера открыл свои двери новый современный лагерь для юных музыкантов «Саmр Star», переманив к себе многих вожатых, преподавателей и ребят из их родного лагеря.Будущее летнего лагеря «Саmр Rock» под угрозой. В довершение всего Люк Уильямс, самый крутой исполнитель из «Саmр Star», предлагает устроить состязание между лагерями, чтобы определить самого талантливого музыканта. Ребята начинаютготовиться к решающей битве, в то время как Нейт влюбляется в дочь владельца лагеря-соперника…-
Качество видео: BDRip
Контейнер: AVI
Видео кодек: XviD
Аудио кодек: AC3
Видео: 720x400 (1.80:1), 23.976 fps, XviD build 65 ~1793 kbps avg, 0.26 bit/pixel
Аудио: 48 kHz, AC3 Dolby Digital, 2/0 (L,R) ch, ~192 kbps
Cубтитры: отсутствуют

Доп. информация

Премерный показ на канале Disney Channel 3 сентября 2010 года посмотрели 8 миллионов зрителей, что стало лучшим результатом для фильмов на американском кабельном телевидении за весь год.

Рецензия

Heart And SoulИменно душой и сердцем я прикипела к этому фильму. А песня Heart And Soul в исполнении братьев Джонас не только стала моей любимой песней этой группы, но и «открыла» для меня самих Джонасов.Сюжет кардинально не отличается от предыдущего. Всё то же здоровое соперничество и неодолимое желание доказать, что ты (вы, они и т. д.) лучший(ие). Приятно осознавать, что и характеры героев не изменились. К примеру, Тесс продолжила свою роль эгоистичной, но ранимой девочки. А в Митчи, после огромной неуверенности, просыпаются задатки лидера и нотки власти (что не очень нравится её друзьям).Про актёров, которые, к счастью, почти не изменились, можно сказать одно: умнички. Мюзиклы не тот жанр кино, в котором требуется огромный актёрский потенциал. Главное: славная мордашка да умение петь и танцевать. А уж в этот фильме этого достаточно. Ещё на парочку штамповок хватит. А Деми с Джо прекрасны как всегда (приз за лучший дуэт 2010 года в песне Wouldn`t Change a Thing). Жаль только, что их отношениям действительно отвели уж очень мало внимания. Хотя и его хватило бы, если бы не отвлекались на, безусловно, милого Ника, но совсем уж скучную Хлою Бриджес.И последнее — музыка. Тут я согласна с большинством — музыкальные номера куда лучше, чем в первой части. Я бы выделила 4 композиции в середине фильма, которых вполне достаточно для моей щедрой (и обоснованной) оценки как итог:10 из 10

Media Info

Общее
Полное имя : F:\Рок в летнем лагере 2 (2010)\Letnij Lagerj-2.2010.BDRip.[pirat.ca].avi
Формат : AVI
Формат/Информация : Audio Video Interleave
Размер файла : 1,45 Гбайт
Продолжительность : 1 ч. 44 м.
Общий поток : 1995 Кбит/сек
Программа кодирования : VirtualDubMod 1.5.10.2 (build 2542/release)Видео
Идентификатор : 0
Формат : MPEG-4 Visual
Профиль формата : Advanced [email protected]/* */
Параметр BVOP формата : 1
Параметр QPel формата : Нет
Параметр GMC формата : Без точки перехода
Параметр матрицы формата : Выборочная
Идентификатор кодека : XVID
Идентификатор кодека/Подсказка : XviD
Продолжительность : 1 ч. 44 м.
Битрейт : 1794 Кбит/сек
Ширина : 720 пикселей
Высота : 400 пикселей
Соотношение сторон : 16:9
Частота кадров : 23,976 (24000/1001) кадра/сек
Цветовое пространство : YUV
Субдискретизация насыщенности : 4:2:0
Битовая глубина : 8 бит
Тип развёртки : Прогрессивная
Метод сжатия : С потерями
Бит/(Пиксели*Кадры) : 0.260
Размер потока : 1,31 Гбайт (90%)
Библиотека кодирования : XviD 65Аудио
Идентификатор : 1
Формат : AC-3
Формат/Информация : Audio Coding 3
Расширение режима : CM (complete main)
Параметр Endianness формата : Big
Идентификатор кодека : 2000
Продолжительность : 1 ч. 44 м.
Вид битрейта : Постоянный
Битрейт : 192 Кбит/сек
Каналы : 2 канала
Расположение каналов : Front: L R
Частота : 48,0 КГц
Частота кадров : 31,250 кадров/сек (1536 spf)
Метод сжатия : С потерями
Размер потока : 143 Мбайт (10%)
Выравнивание : Разделение по промежуткам
Продолжительность промежутка : 42 мс. (1,00 видеокадр)
Время предзагрузки промежутка : 500 мс.

Скриншот c названием фильма

Скриншоты

-Трейлер
Рейтинг@Mail.ru