Империя Криса Трояно / Kings of South Beach (Тим Хантер / Tim Hunter) [2007 г., драма, DVDRip] MVO [R5]

 

Создавать темы 18-Окт-2016 04:30

-Империя Криса Трояно / Kings of South Beach-- Производство: США, Grosso-Jacobson Communications
Год выпуска: 2007 г.
Жанр: драма
Продолжительность: 01:26:55Мировая премьера: 10 марта 2007
Дата выхода DVD: 28 августа 2008, «Columbia/Sony»
Перевод: Профессиональный (многоголосый, закадровый) [R5]
Режиссер: Тим Хантер / Tim Hunter-В ролях: Донни Уолберг, Джейсон Гедрик, Стивен Бауэр, Мария Валентина Бове, Рикардо Чавира, Хуан Пабло Гамбоа, Кристина Гарсиа, Брайан Гудман, Билл Дойл, Фрэнк Джон Хьюз-Описание: Фильм основан на шокирующих реальных событиях жизни легендарного распорядителя ночной жизни Майами — Криса Пасиэльо. Секс, наркотики, рок-н-ролл и ганстерские разборки — основа его репутации.Владелец ночного клуба Крис Трояно завоевал Южное Побережье Майами в середине 1990-х годов. Он превратил это тихое и отдаленное местечко в пафосную, супер-стильную, заправленную наркотой игровую площадку для богатых и знаменитых. Опасаясь мафиозных разборок, Крис нанимает Энди Барнетта, не весть откуда взявшегося парня в качестве своего телохранителя.Уличная закалка Энди быстро переводит его из разряда «правой руки» в статус друга. Но жестокое прошлое ныне богатого и влиятельного Трояно заявляет об угрозе падения его империи и восстанавливает лучших друзей друг против друга. Дружеский альянс дает обратную реакцию!-
Качество видео: DVDRip
Контейнер: AVI
Видео кодек: XviD
Аудио кодек: AC3
Видео: 720x400 (1.80:1), 25 fps, XviD build 47 ~1793 kbps avg, 0.25 bit/pixel
Аудио: 48 kHz, AC3 Dolby Digital, 3/2 (L,C,R,l,r) + LFE ch, ~448 kbps
Cубтитры: отсутствуют

Media Info

Общее
Полное имя : F:\Империя Криса Трояно (2007)\Kings of South Beach.2007.DVDRip.[pirat.ca].avi
Формат : AVI
Формат/Информация : Audio Video Interleave
Размер файла : 1,37 Гбайт
Продолжительность : 1 ч. 26 м.
Общий поток : 2252 Кбит/сек
Программа кодирования : VirtualDubMod 1.5.10.2 (build 2540/release)
Библиотека кодирования : VirtualDubMod build 2540/releaseВидео
Идентификатор : 0
Формат : MPEG-4 Visual
Профиль формата : Advanced [email protected]/* */
Параметр BVOP формата : 1
Параметр QPel формата : Нет
Параметр GMC формата : Без точки перехода
Параметр матрицы формата : Default (MPEG)
Идентификатор кодека : XVID
Идентификатор кодека/Подсказка : XviD
Продолжительность : 1 ч. 26 м.
Битрейт : 1794 Кбит/сек
Ширина : 720 пикселей
Высота : 400 пикселей
Соотношение сторон : 16:9
Частота кадров : 25,000 кадров/сек
Цветовое пространство : YUV
Субдискретизация насыщенности : 4:2:0
Битовая глубина : 8 бит
Тип развёртки : Прогрессивная
Метод сжатия : С потерями
Бит/(Пиксели*Кадры) : 0.249
Размер потока : 1,09 Гбайт (80%)
Библиотека кодирования : XviD 1.2.0.dev47 (UTC 2006-11-01)Аудио
Идентификатор : 1
Формат : AC-3
Формат/Информация : Audio Coding 3
Расширение режима : CM (complete main)
Параметр Endianness формата : Big
Идентификатор кодека : 2000
Продолжительность : 1 ч. 26 м.
Вид битрейта : Постоянный
Битрейт : 448 Кбит/сек
Каналы : 6 каналов
Расположение каналов : Front: L C R, Side: L R, LFE
Частота : 48,0 КГц
Частота кадров : 31,250 кадров/сек (1536 spf)
Метод сжатия : С потерями
Размер потока : 279 Мбайт (20%)
Выравнивание : Разделение по промежуткам
Продолжительность промежутка : 40 мс. (1,00 видеокадр)
Время предзагрузки промежутка : 500 мс.

Скриншоты

-Трейлер
Рейтинг@Mail.ru