Стартрек: Бесконечность / Star Trek Beyond (Джастин Лин / Justin Lin) [2016 г., фантастика, боевик, триллер, приключения, WEB-DL, 1080p] Dub (iTunes) + Original (Eng) + Sub (Rus, Eng)

 

Создавать темы 18-Окт-2016 04:14

-Стартрек: Бесконечность / Star Trek Beyond
«Fifty year. One legacy.»
-- Производство: США
Год выпуска: 2016 г.
Жанр: фантастика, боевик, триллер, приключения
Продолжительность: 02:02:29Перевод: Профессиональный (полное дублирование) [iTunes]
Оригинальный аудиопоток: английскийРежиссер: Джастин Лин / Justin Lin-В ролях: Крис Пайн, Закари Куинто, Саймон Пегг, Карл Урбан, Зои Салдана, Джон Чо, Антон Ельчин, Идрис Эльба, София Бутелла, Джо Таслим-Описание: Бесстрашная команда крейсера Звездного Флота «Энтерпрайз» исследует неизведанные глубины космоса. Во время этого полного опасностей путешествия герои сталкиваются с таинственной силой, ставящей под угрозу не только их миссию и стабильность Федерации, но и весь миропорядок.- - -Качество видео: WEB-DL
Контейнер: MKV
Стандарт разрешения: 1080p
Видео кодек: H.264/AVC
Аудио кодек: AC3
Видео: 1912x800 at 23.976 fps, ~4552 kbps avg
Аудио: Russian: 48 kHz, AC3, 3/2 (L,C,R,l,r) + LFE ch, ~384.00 kbps avg |Дубляж, iTunes Russia|
Аудио #2: English: 48 kHz, AC3, 3/2 (L,C,R,l,r) + LFE ch, ~384.00 kbps avg
Cубтитры: Russian (Forced, iTunes), Russian (iTunes), English (Forced, iTunes)

Знаете ли вы, что...

• Джей Джей Абрамс отклонил предложение снять третий фильм франшизы «Звёздный путь» из-за работы над фильмом «Звёздные войны: Пробуждение силы» (2015). Он стал одним из продюсеров фильма «Стартрек: Бесконечность» (2016), а предложение стать режиссёром сделали Роберто Орси - одному из авторов сценария в первых двух фильмах перезапущенной франшизы. Так получилось, однако, что в декабре 2014 года Орси уступил кресло режиссёра Джастину Лину.
• В августе 2014 года компания «Paramount Pictures» официально объявила о переносе даты выхода фильма на экраны. Новая дата совпала с 50-летней годовщиной создания Джином Родденберри (1921-1991) «Звёздного пути» (1966-1969).
• Это первый фильм франшизы «Звёздный путь», не снятый на 35-мм плёнку.
• Один из авторов сценария Саймон Пегг ещё в 2007 году сообщил в «Шоу Грэма Нортона», что работает над сценарием этого фильма. 19 мая 2015 года он заявил на собственном сайте, что фильм будет называться «Стартрек: Бесконечность».
• Это первый фильм франшизы «Звёздный путь», который снимали в основном не в Голливуде, а в Ванкувере (провинция Британская Колумбия, Канада). Там в студии были с нуля воссозданы все декорации, включая внутреннее убранство звездолёта «Энтерпрайз».
• Режиссёром фильма стал Джастин Лин, а в списке кандидатов на эту должность были также Эдгар Райт, Руперт Уайатт, Мортен Тильдум, Даниэль Эспиноса и Дункан Джонс.
• Действие фильма разворачивается через 2,5 года после событий, о которых рассказано в фильме «Стартрек: Возмездие» (2013).
• Режиссёрский дебют Джастина Лина в научно-фантастическом кино.
• Это будет 13-й полнометражный фильм франшизы «Звёздный путь».
• В период, когда режиссёром был выбран Роберто Орси, он нанял оператором Клаудио Миранду, но с уходом Орси из режиссёров тот покинул проект, и его сменил Стивен Ф. Уиндон.
• Первый фильм франшизы «Звёздный путь», снятый режиссёром, который родился в Тайване.
• Идрис Эльба - третий актёр, сыгравший в серии фильмов «Тор», который остался в перезапущенной франшизе «Звёздный путь». Крис Хемсворт сыграл Джорджа Кирка в ремейке «Звёздный путь» (2009), в то время как Джозеф Гатт исполнил роль офицера на мостике. Во франшизе «Тор» Крис Хемсворт сыграл Тора, Идрис Эльба - Хеймдалла, а Джозеф Гатт - Грундрота.
• Когда стало известно, что Джей Джей Абрамс не будет снимать фильм, на ранних стадиях работы над проектом на роль режиссёра рассматривались кандидатуры Джо Корниша, Джона М. Чу и Брэда Бёрда.
• Третий фильм перезапущенной франшизы «Звёздный путь».
• Одно время ходили слухи, что в фильме в эпизодической роли капитана Кирка появится Уильям Шетнер, хотя этот персонаж погибает в фильме «Звёздный путь 7: Поколения» (1994). Актёр однако заявил, что принимать участие в съёмках не будет. В оригинальном временном потоке капитан Кирк погиб за 16 лет до уничтожения планеты Ромул.
• Первый сценарий не в комедийном жанре, написанный Саймоном Пеггом.
• В ранних интервью автор сценария Саймон Пегг называл космическую станцию 'Звёздной базой 'Йорктаун'. В первых вариантах сценариев 'Звёздного пути' (1966-1969), написанных Джином Родденберри, 'Йорктауном' назывался звёздолёт. Родденберри переименовал его в 'Энтерпрайз' уже позже.
• Фильм выходит в прокат в один год с выходом фильма Гарета Эдвардса «Изгой-один. Звёздные войны: Истории». Такое уже случалось в 2002 году, когда на экраны вышли фильмы Стюарта Бейрда «Звездный путь: Возмездие» и Джорджа Лукаса «Звёздные войны: Эпизод 2 – Атака клонов».
• Первый фильм франшизы «Звёздный путь», снятый режиссёром, который родился после выхода на телеэкраны телесериала «Звёздный путь» (1966-1969). Джей Джей Абрамс родился через несколько месяцев после премьеры первого эпизода сериала, а Джастин Лин - через четыре года после окончания показа сериала.
• Идрис Эльба и София Бутелла - единственные в актёрском составе фильма, кто занят в музыкальном бизнесе (музыка в стиле хип-хоп).
• Трейлер для показа в кинотеатрах вышел 20 мая 2016 года.
• Карл Урбан признался в интервью, что чуть не отклонил предложение снова сыграть доктора Леонарда Маккоя. Принять предложение его убедил режиссёр Джастин Лин.

Media Info

Код:
Format : Matroska
Format version : Version 2
File size : 4.55 GiB
Duration : 2h 2mn
Overall bit rate : 5 326 Kbps
Movie name : Star Trek Beyond (2016) - Release for HDCLUB
Encoded date : UTC 2016-10-17 18:15:00
Writing application : mkvmerge v3.4.0 ('Rapunzel') built on May 15 2010 09:38:20
Writing library : libebml v0.8.0 + libmatroska v0.9.0Video
ID : 1
Format : AVC
Format/Info : Advanced Video Codec
Format profile : [email protected]/* */
Format settings, CABAC : Yes
Format settings, ReFrames : 5 frames
Codec ID : V_MPEG4/ISO/AVC
Duration : 2h 2mn
Bit rate : 4 452 Kbps
Width : 1 912 pixels
Height : 800 pixels
Display aspect ratio : 2.40:1
Frame rate mode : Constant
Frame rate : 23.976 fps
Color space : YUV
Chroma subsampling : 4:2:0
Bit depth : 8 bits
Scan type : Progressive
Bits/(Pixel*Frame) : 0.121
Stream size : 3.80 GiB (84%)
Title : Star Trek Beyond (2016) - Release for HDCLUB
Language : English
Default : Yes
Forced : No
Color primaries : BT.709
Transfer characteristics : BT.709
Matrix coefficients : BT.709
Color range : LimitedAudio #1
ID : 2
Format : AC-3
Format/Info : Audio Coding 3
Mode extension : CM (complete main)
Format settings, Endianness : Big
Codec ID : A_AC3
Duration : 2h 2mn
Bit rate mode : Constant
Bit rate : 384 Kbps
Channel(s) : 6 channels
Channel positions : Front: L C R, Side: L R, LFE
Sampling rate : 48.0 KHz
Bit depth : 16 bits
Compression mode : Lossy
Stream size : 336 MiB (7%)
Title : AC3 5.1 @ 384 kbps - DUB, iTunes
Language : Russian
Default : Yes
Forced : NoAudio #2
ID : 3
Format : AC-3
Format/Info : Audio Coding 3
Mode extension : CM (complete main)
Format settings, Endianness : Big
Codec ID : A_AC3
Duration : 2h 2mn
Bit rate mode : Constant
Bit rate : 384 Kbps
Channel(s) : 6 channels
Channel positions : Front: L C R, Side: L R, LFE
Sampling rate : 48.0 KHz
Bit depth : 16 bits
Compression mode : Lossy
Stream size : 336 MiB (7%)
Title : AC3 5.1 @ 384 kbps
Language : English
Default : No
Forced : NoText #1
ID : 4
Format : UTF-8
Codec ID : S_TEXT/UTF8
Codec ID/Info : UTF-8 Plain Text
Title : Forced, iTunes
Language : Russian
Default : Yes
Forced : NoText #2
ID : 5
Format : UTF-8
Codec ID : S_TEXT/UTF8
Codec ID/Info : UTF-8 Plain Text
Title : iTunes
Language : Russian
Default : No
Forced : NoText #3
ID : 6
Format : UTF-8
Codec ID : S_TEXT/UTF8
Codec ID/Info : UTF-8 Plain Text
Title : Forced, iTunes
Language : English
Default : No
Forced : NoMenu
00:00:00.000 : en:Chapter 1
00:08:25.000 : en:Chapter 2
00:16:10.000 : en:Chapter 3
00:32:37.000 : en:Chapter 4
00:42:15.000 : en:Chapter 5
00:52:21.000 : en:Chapter 6
00:59:49.000 : en:Chapter 7
01:12:04.000 : en:Chapter 8
01:22:33.000 : en:Chapter 9
01:33:00.000 : en:Chapter 10
01:40:32.000 : en:Chapter 11
01:47:38.000 : en:Chapter 12
01:52:31.000 : en:Chapter 13
01:55:40.000 : en:Chapter 14

Скриншоты

Рейтинг@Mail.ru