Шакал [серии 1-8 из 8] (Евгений Звездаков) [2016, детектив, WEBRip]

 

Создавать темы 16-Окт-2016 19:28

- Шакал (серии 1-8 из 8) - Телекомпания: Россия / "Красный квадрат", студия "Русский Проект"
Жанр: детектив
Режиссер: Евгений Звездаков
Актеры: Андрей Смоляков, Марина Александрова, Екатерина Климова, Вадим Андреев, Алексей Бардуков, Павел Чинарев, Александра Бортич, Сергей Белов, Юрий Ицков, Андрей Феськов, Юрий Чурсин и др.
Описание:

Для информации: этот сезон является продолжением сезонов фильмов
МосГаз,
Палач,
Паук (Гознак)

Начало 70-х годов. Майор Черкасов и его команда расследуют новое дело. На этот раз речь идет об ограблениях. А это сфера отдела по борьбе с хищениями социалистической собственности (ОБХСС). Во время грабежей бандиты беспощадно убивают свидетелей. Ограбления организованы четко и продумано. И готовит их кто-то очень осведомленный. Руководство принимает решение объединить против «беспредельщиков» усилия двух ведомств московской милиции: МВД и ОБХСС. Вместе они готовят операцию по задержанию банды. Милиционерам придется столкнуться с хитрым и коварным противником. И потребуются огромные усилия доблестной опергруппы и проницательного Черкасова, чтобы победить жестокого врага.


Дата российской премьеры: 17 октября 2016
Продолжительность: ~ 00:52:00 серия
Качество видео: WEBRip
Видео: XviD, 720х400 (16:9), ~1443 Kbps
Аудио: MP3, 2 ch, 128 kbps

МИ

Общее
Формат : AVI
Формат/Информация : Audio Video Interleave
Размер файла : 596 Мбайт
Продолжительность : 52 м.
Общий поток : 1580 Кбит/сек
Программа кодирования : VirtualDubMod 1.5.10.3 | (build 2550/release)
Библиотека кодирования : VirtualDubMod build 2550/release
Видео
Идентификатор : 0
Формат : MPEG-4 Visual
Профиль формата : Advanced [email protected]
Параметр BVOP формата : 2
Параметр QPel формата : Нет
Параметр GMC формата : Без точки перехода
Параметр матрицы формата : Default (MPEG)
Идентификатор кодека : XVID
Идентификатор кодека/Подсказка : XviD
Продолжительность : 52 м.
Битрейт : 1443 Кбит/сек
Ширина : 720 пикселей
Высота : 400 пикселей
Соотношение сторон : 16:9
Частота кадров : 23,976 кадра/сек
Цветовое пространство : YUV
Субдискретизация насыщенности : 4:2:0
Битовая глубина : 8 бит
Тип развёртки : Прогрессивная
Метод сжатия : С потерями
Бит/(Пиксели*Кадры) : 0.209
Размер потока : 544 Мбайт (91%)
Библиотека кодирования : XviD 1.2.1 (UTC 2008-12-04)
Аудио
Идентификатор : 1
Формат : MPEG Audio
Версия формата : Version 1
Профиль формата : Layer 3
Идентификатор кодека : 55
Идентификатор кодека/Подсказка : MP3
Продолжительность : 52 м.
Вид битрейта : Постоянный
Битрейт : 128 Кбит/сек
Каналы : 2 канала
Частота : 48,0 КГц
Метод сжатия : С потерями
Размер потока : 48,3 Мбайт (8%)
Выравнивание : Соединение по промежуткам
Продолжительность промежутка : 42 мс. (1,00 видеокадр)
Время предзагрузки промежутка : 504 мс.
Библиотека кодирования : LAME3.99r
Настройки программы : -m s -V 4 -q 2 -lowpass 17 -b 128
Скриншоты:


Последний раз редактировалось: Геннадич (2016-10-16 19:37), всего редактировалось 2 раз(а)

Создавать темы 16-Окт-2016 19:31 (спустя 3 минуты)

Премьера сериала начнется через 1,5 часа

  • файл заменен на более современный :)
  • Создавать темы 18-Окт-2016 06:17 (спустя 1 день 10 часов)

    Чавото не заружается???
    Рейтинг@Mail.ru