[ Сегодня на трекере фрилич! Идет свободное скачивание без начисления Download ]

Секреты секса и любви / Kiki, el amor se hace (Пако Леон / Paco León) [2016, Комедия, HDRip] Дублированный (iTunes)

 

Создавать темы 16-Окт-2016 18:59

- Секреты секса и любви / Kiki, el amor se hace - Производство: Испания
Жанр: Комедия
Режиссер: Пако Леон
Актеры: Наталия де Молина, Алехандро Гарсия, Джакобо Санчес, Сильвия Рей, Пако Леон, Белен Куэста, Кандела Пенья, Луис Кальехо
Описание:
Жарким летом в Мадриде пять пар в томлении страсти открывают для себя весьма неожиданные формы сексуального влечения. Изумление и страх перед неведомыми удовольствиями сменяются неконтролируемым желанием. Табу рушатся, и теперь ничто не в силах удержать героев от любовных экспериментов.

Возраст: 18+ (зрителям, достигшим 18 лет. запрещено для детей)
Дата мировой премьеры: 1 апреля 2016
Дата российской премьеры: 15 сентября 2016, «Русский Репортаж»
Релиз: MegaPeer
Продолжительность: 01:42:22
Качество видео: HDRip Sample
Перевод: Дублированный (iTunes)
Cубтитры: отсутствуют
Видео: Xvid, 720x304, 1652 Kbps
Аудио: AC3, 6 ch, 384 Kbps

МИ

Общее
Формат                                   : AVI
Формат/Информация                        : Audio Video Interleave
Размер файла                             : 1,46 Гбайт
Продолжительность                        : 1 ч. 42 м.
Общий поток                              : 2044 Кбит/сек
Видео
Идентификатор                            : 0
Формат                                   : MPEG-4 Visual
Профиль формата                          : Advanced [email protected]
Параметр BVOP формата                    : 1
Параметр QPel формата                    : Нет
Параметр GMC формата                     : Без точки перехода
Параметр матрицы формата                 : Выборочная
Идентификатор кодека                     : XVID
Идентификатор кодека/Подсказка           : XviD
Продолжительность                        : 1 ч. 42 м.
Битрейт                                  : 1652 Кбит/сек
Ширина                                   : 720 пикселей
Высота                                   : 304 пикселя
Соотношение сторон                       : 2,35:1
Частота кадров                           : 24,000 кадра/сек
Цветовое пространство                    : YUV
Субдискретизация насыщенности            : 4:2:0
Битовая глубина                          : 8 бит
Тип развёртки                            : Прогрессивная
Метод сжатия                             : С потерями
Бит/(Пиксели*Кадры)                      : 0.314
Размер потока                            : 1,18 Гбайт (81%)
Библиотека кодирования                   : XviD 73
Аудио
Идентификатор                            : 1
Формат                                   : AC-3
Формат/Информация                        : Audio Coding 3
Расширение режима                        : CM (complete main)
Параметр Endianness формата              : Big
Идентификатор кодека                     : 2000
Продолжительность                        : 1 ч. 42 м.
Вид битрейта                             : Постоянный
Битрейт                                  : 384 Кбит/сек
Каналы                                   : 6 каналов
Расположение каналов                     : Front: L C R, Side: L R, LFE
Частота                                  : 48,0 КГц
Частота кадров                           : 31,250 кадров/сек (1536 spf)
Метод сжатия                             : С потерями
Размер потока                            : 280 Мбайт (19%)
Выравнивание                             : Соединение по промежуткам
Продолжительность промежутка             : 64  мс. (1,54 видеокадра)
Время предзагрузки промежутка            : 192  мс.
Заголовок                                : iTunes
Скриншоты:
Рейтинг@Mail.ru