Никита / Nikita (Сезон 4, Серии 5 из 6) (Эгил Эгилссон / Eagle Egilsson, ...) [2013г., боевик, триллер, драма, криминал, ... WEB-DLRip] MVO (NewStudio) [обновляемая]

 

Создавать темы 08-Янв-2014 00:58

Никита / Nikita
«Looks Do Kill»
- Русское название: Никита
Оригинальное название: Nikita
Страна: США
Год выпуска: 2013
Жанр: боевик, триллер, драма, криминал, ...-Перевод: Многоголосый закадровый, профессиональный
Релиз группы: NewStudio
Озвучка: Gutta, Caps
Автор перевода: PtYza
Постер: Vortex-Премьера (мир): 9 сентября 2010, ...
Премьера (РФ): 19 июня 2011
релиз на DVD: 12 сентября 2013, «CP Дистрибуция», ...-Режиссер: Эгил Эгилссон / Eagle Egilsson, Ник Копус / Nick Copus , Дэнни Кэннон / Danny Cannon ...
В главных ролях: Мэгги Кью, Шэйн Уэст, Линдси Фонсека, Аарон Стэнфорд, Мелинда Кларк, Ксандер Беркли, Роб Стюарт, Диллон Кэйси, Питер Аутербридж, Ной Бин ...-Описание фильма:
Когда Никита была крайне проблемным тинейджером, от смерти её спасло секретное агентство США, известное как Подразделение, которое подстроило её казнь и убедило, что ей дали второй шанс начать новую жизнь и возможность послужить своей стране. Однако ей не сказали, что её тренировали как шпионку и убийцу. В конце концов Никиту предали и все её мечты были разрушены людьми, которым, как она думала, можно было доверять.
После трех лет в бегах Никита ищет возмездия, ясно дав понять своим бывшим боссам, что она ни перед чем не остановится, чтобы разоблачить и уничтожить их секретное управление. Однако на данный момент Подразделение продолжает набирать рекрутов и обучать молодых людей, стирая любую информацию об их прежней жизни и делая из них хладнокровных и квалифицированных убийц. Одна из новых рекрутов, Алекс, только начинает понимать, что ждет ее в будущем и почему легендарная Никита приняла отчаянную попытку бежать.-Сезон: 4
Серии: 5 из 6 серий
Продолжительность: ~ 00:42:00 мин серия-Качество видео: WEB-DLRip
Формат: AVI
Видеокодек: XviD
Аудиокодек: Mp3
Видео: MPEG-4 Visual at 1364 Кбит/сек, 720 x 400 (1.800) at 23.976 fps, 0.197 Бит/Пиксели
Аудио Rus: MPEG Audio at 128 Кбит/сек, 2 канала, 48,0 КГц |NewStudio|
Аудио Eng: MPEG Audio at 128 Кбит/сек, 2 канала, 48,0 КГц |Original|
- -

Список серий:

  • Погоня (Wanted)
  • Живой или мертвый (Dead or Alive)
  • Подстава (Set-Up)
  • Расплата (Pay-Off)
  • Иллюзия (Bubble)
-

MediaInfo:

Общее
Полное имя                               : E:\_Сериалы\Никита\Nikita 4-NewStudio\Nikita.s04e01.WEBDLRip.NewStudio.TV.avi
Формат                                   : AVI
Формат/Информация                        : Audio Video Interleave
Размер файла                             : 499 Мбайт
Продолжительность                        : 42 м.
Общий поток                              : 1634 Кбит/сек
Программа кодирования                    : VirtualDubMod 1.5.10.2 (build 2540/release)
Библиотека кодирования                   : VirtualDubMod build 2540/release
Видео
Идентификатор                            : 0
Формат                                   : MPEG-4 Visual
Профиль формата                          : Advanced [email protected]
Параметр BVOP формата                    : 2
Параметр QPel формата                    : Нет
Параметр GMC формата                     : Без точки перехода
Параметр матрицы формата                 : Default (MPEG)
Идентификатор кодека                     : XVID
Идентификатор кодека/Подсказка           : XviD
Продолжительность                        : 42 м.
Битрейт                                  : 1364 Кбит/сек
Ширина                                   : 720 пикселей
Высота                                   : 400 пикселей
Соотношение сторон                       : 16:9
Частота кадров                           : 23,976 кадра/сек
Цветовое пространство                    : YUV
Субдискретизация насыщенности            : 4:2:0
Битовая глубина                          : 8 бит
Тип развёртки                            : Прогрессивная
Метод сжатия                             : С потерями
Бит/(Пиксели*Кадры)                      : 0.197
Размер потока                            : 417 Мбайт (83%)
Библиотека кодирования                   : XviD 64
Аудио #1
Идентификатор                            : 1
Формат                                   : MPEG Audio
Версия формата                           : Version 1
Профиль формата                          : Layer 3
Режим                                    : Joint stereo
Расширение режима                        : MS Stereo
Идентификатор кодека                     : 55
Идентификатор кодека/Подсказка           : MP3
Продолжительность                        : 42 м.
Вид битрейта                             : Постоянный
Битрейт                                  : 128 Кбит/сек
Каналы                                   : 2 канала
Частота                                  : 48,0 КГц
Метод сжатия                             : С потерями
Размер потока                            : 39,1 Мбайт (8%)
Выравнивание                             : Соединение по промежуткам
Продолжительность промежутка             : 42  мс. (1,00 видеокадр)
Время предзагрузки промежутка            : 504  мс.
Аудио #2
Идентификатор                            : 2
Формат                                   : MPEG Audio
Версия формата                           : Version 1
Профиль формата                          : Layer 3
Режим                                    : Joint stereo
Расширение режима                        : MS Stereo
Идентификатор кодека                     : 55
Идентификатор кодека/Подсказка           : MP3
Продолжительность                        : 42 м.
Вид битрейта                             : Постоянный
Битрейт                                  : 128 Кбит/сек
Каналы                                   : 2 канала
Частота                                  : 48,0 КГц
Метод сжатия                             : С потерями
Размер потока                            : 39,1 Мбайт (8%)
Выравнивание                             : Соединение по промежуткам
Продолжительность промежутка             : 42  мс. (1,00 видеокадр)
Время предзагрузки промежутка            : 504  мс.
-

Скриншот c названием фильма

-Скриншоты:
-

Еще

-

Внимание! Раздача ведётся путём добавления новых серий!

Внимание! Раздача ведётся путём добавления новых серий; при каждом добавлении создётся новый торрент. Чтобы начать докачку новой серии, пользователям необходимо сделать следующее:
(1) остановить скачивание,
(2) удалить старый торрент у себя из клиента (старые серии удалять не надо),
(3) скачать новый торрент и запустить его у себя в клиенте вместо старого, при этом указать клиенту путь в старую папку куда и должно происходить скачивание новых серий.
Ваш клиент при этом должен произвести хеширование (проверку) старой папки (если не производит сам - помогите ему сделать это), и будет докачивать только те серии которых у вас ещё нет. Старые серии при этом не удаляются, а продолжают раздаваться!
Eсли вы уже удалили старые серии, то предотвратить повторную закачку старых серий можно, отжав галочку в соответсвующих местах при запуске нового торрента.
-Добавлена пятая серия четвертого сезона
Яндекс.Метрика
Рейтинг@Mail.ru