Зов крови / Потерянная / Фэйри / Lost Girl (Сезон 4, Серии 8 из 13) (Стив ДиМарко / Steve DiMarco ...) [2013г., ужасы, фэнтези, криминал, ... , WEBDLRip] MVO (NewStudio) [обновляемая]

 

Создавать темы 08-Янв-2014 00:56

Зов крови / Потерянная / Фэйри
Lost Girl
- Русское название: Зов крови / Потерянная / Фэйри
Оригинальное название: Lost Girl
Страна: Канада
Год выпуска: 2013
Жанр: ужасы, фэнтези, криминал, ...-Озвучка: Студия NewStudio
Перевод: Многоголосый закадровый, профессиональный
Автор перевода: Дмитрий Малиновский-Премьера (мир): 12 сентября 2010, ...
Премьера (РФ): 12 апреля 2011-Режиссер: Стив ДиМарко / Steve DiMarco, Джон Фоусет / John Fawcett, Роберт Либерман / Robert Lieberman ...
Актеры: Анна Силк, Кристен Холден-Рид, Ксения Соло, Ричард Хоуланд, Зои Палмер, К.К. Коллинз, Винсент Уолш, Рэйчел Скарстен, Пол Амос, Лина Росслер ...-Описание фильма:
Бо — суккуб. Выросшая в человеческой семье она не знала о своей истинной природе, считая себя фриком, а неумение контролировать сверхъестественный голод сделало ее одинокой беглянкой, оставляющей после себя череду трупов. Все меняется, когда Бо попадает в поле зрения кланов Фэйри, объяснивших ей кто она. Не желая выбирать между кланами Света и Тьмы, Бо решает занять сторону людей. Ей помогают юная русская воровка Кензи, детектив-оборотень Дайсон и доктор Лорен, занимающаяся изучением Фэйри.-Сезон: 4
Серии: 8 из 13 серий
Продолжительность: ~ 00:44:00 мин серия-Качество видео: WEBDLRip
Формат: AVI
Видеокодек: XviD
Аудиокодек: Mp3
Видео: MPEG-4 Visual at 1472 Кбит/сек, 720 x 400 (1.800) at 23.976 fps, 0.213 Бит/Пиксели
Аудио Rus: MPEG Audio at 128 Кбит/сек, 2 канала, 48,0 КГц |NewStudio|
Аудио Eng: MPEG Audio at 128 Кбит/сек, 2 канала, 48,0 КГц |Original|
- -

Список серий:

  • В память (In Memoriam)
  • Школа Спящих Красавиц (Sleeping Beauty School)
  • Разлученные (Lovers. Apart.)
  • Обращение в камень (Turn to Stone)
  • Время Темного Ролла (Let the Dark Times Roll)
  • Из всех забегаловок (Of All the Gin Joints)
  • Эпоха фей (La Fae Époque)
  • Феи сурка (Groundhog Fae)
-

MediaInfo:

Общее
Полное имя                               : E:\_Сериалы\111\Зов крови\Lost Girl 4 - NewStudio\Lost.Girl.s04e01.WEBDLRip.NewStudio.TV.avi
Формат                                   : AVI
Формат/Информация                        : Audio Video Interleave
Размер файла                             : 553 Мбайт
Продолжительность                        : 44 м.
Общий поток                              : 1742 Кбит/сек
Программа кодирования                    : VirtualDubMod 1.5.10.2 (build 2540/release)
Библиотека кодирования                   : VirtualDubMod build 2540/release
Видео
Идентификатор                            : 0
Формат                                   : MPEG-4 Visual
Профиль формата                          : Advanced [email protected]
Параметр BVOP формата                    : 2
Параметр QPel формата                    : Нет
Параметр GMC формата                     : Без точки перехода
Параметр матрицы формата                 : Default (MPEG)
Идентификатор кодека                     : XVID
Идентификатор кодека/Подсказка           : XviD
Продолжительность                        : 44 м.
Битрейт                                  : 1472 Кбит/сек
Ширина                                   : 720 пикселей
Высота                                   : 400 пикселей
Соотношение сторон                       : 16:9
Частота кадров                           : 23,976 кадра/сек
Цветовое пространство                    : YUV
Субдискретизация насыщенности            : 4:2:0
Битовая глубина                          : 8 бит
Тип развёртки                            : Прогрессивная
Метод сжатия                             : С потерями
Бит/(Пиксели*Кадры)                      : 0.213
Размер потока                            : 467 Мбайт (85%)
Библиотека кодирования                   : XviD 64
Аудио #1
Идентификатор                            : 1
Формат                                   : MPEG Audio
Версия формата                           : Version 1
Профиль формата                          : Layer 3
Режим                                    : Joint stereo
Расширение режима                        : MS Stereo
Идентификатор кодека                     : 55
Идентификатор кодека/Подсказка           : MP3
Продолжительность                        : 44 м.
Вид битрейта                             : Постоянный
Битрейт                                  : 128 Кбит/сек
Каналы                                   : 2 канала
Частота                                  : 48,0 КГц
Метод сжатия                             : С потерями
Размер потока                            : 40,6 Мбайт (7%)
Выравнивание                             : Соединение по промежуткам
Продолжительность промежутка             : 42  мс. (1,00 видеокадр)
Время предзагрузки промежутка            : 504  мс.
Аудио #2
Идентификатор                            : 2
Формат                                   : MPEG Audio
Версия формата                           : Version 1
Профиль формата                          : Layer 3
Режим                                    : Joint stereo
Расширение режима                        : MS Stereo
Идентификатор кодека                     : 55
Идентификатор кодека/Подсказка           : MP3
Продолжительность                        : 44 м.
Вид битрейта                             : Постоянный
Битрейт                                  : 128 Кбит/сек
Каналы                                   : 2 канала
Частота                                  : 48,0 КГц
Метод сжатия                             : С потерями
Размер потока                            : 40,6 Мбайт (7%)
Выравнивание                             : Соединение по промежуткам
Продолжительность промежутка             : 42  мс. (1,00 видеокадр)
Время предзагрузки промежутка            : 504  мс.
Библиотека кодирования                   : LAME3.99r
Настройки программы                      : -m j -V 4 -q 2 -lowpass 17 -b 128
-

Скриншот c названием фильма

-Скриншоты:
-

Еще

-

Внимание! Раздача ведётся путём добавления новых серий!

Внимание! Раздача ведётся путём добавления новых серий; при каждом добавлении создётся новый торрент. Чтобы начать докачку новой серии, пользователям необходимо сделать следующее:
(1) остановить скачивание,
(2) удалить старый торрент у себя из клиента (старые серии удалять не надо),
(3) скачать новый торрент и запустить его у себя в клиенте вместо старого, при этом указать клиенту путь в старую папку куда и должно происходить скачивание новых серий.
Ваш клиент при этом должен произвести хеширование (проверку) старой папки (если не производит сам - помогите ему сделать это), и будет докачивать только те серии которых у вас ещё нет. Старые серии при этом не удаляются, а продолжают раздаваться!
Eсли вы уже удалили старые серии, то предотвратить повторную закачку старых серий можно, отжав галочку в соответсвующих местах при запуске нового торрента.
-Добавлена восьмая серия четвертого сезона
Первая серия заменена на WEBDLRip
Яндекс.Метрика
Рейтинг@Mail.ru