[ Сегодня на трекере фрилич! Идет свободное скачивание без начисления Download ]

BBC. Горизонт. Как развить творческие способности? / BBC Horizon - The Creative Brain: How Insight Works (2013,документальный HDTVRip) от R.G.RealMT | P2

 

Создавать темы 07-Янв-2014 14:12

Год выпуска: 2013
Страна: Великобритания
Студия: BBC
Жанр: документальный
Продолжительность: 00:53:12
Перевод: Профессиональный (двухголосый закадровый) - студия "Марафон"
Субтитры: русские (на неозвученные места)
Режиссер: Кэйт Дарт / Kate Dart
Описание: Мы узнаём вдохновение, когда оно приходит. Тогда в голове словно вспыхивает свет, и мы чувствуем порыв: рождается мелодия, приходит решение задачи или яркий образ. Сегодня учёные решили ряд загадок и смогли выяснить, как случаются моменты озарения. Им удалось заглянуть в мозг и увидеть, как вспыхивает искра творчества. Это значит, что можно найти способы стимулировать творческие способности и делать людей более креативными.
В документальном фильме рассказывается о том, какие эксперименты проводятся, чтобы достичь этих целей. Доктор Рекс Янг из университета Нью-Мексико, профессор Джонатан Скулер из Калифорнийского университета в Санта-Барбаре и другие учёные рассказывают о своих открытиях и делятся планами по новым исследованиям
.
Доп. информация: В неозвученных местах присутствуют русские субтитры.
Качество: HDTVRip
Формат:AVI
Видео кодек: XviD
Аудио кодек: AC-3
Видео: 16:9, 2000 Кбит/сек, 720x400, 25,000 кадров/сек
Аудио: AC-3, 2 канала, 128 Кбит/сек, 48,0 КГц

MediaInfo

Общее
Полное имя : D:BBC.Horizon.2013.The.Creative.Brain.How.Insight.Works.avi
Формат : AVI
Формат/Информация : Audio Video Interleave
Размер файла : 813 Мбайт
Продолжительность : 53 м.
Общий поток : 2138 Кбит/сек
Программа кодирования : VirtualDubMod 1.5.10.3 | www.virtualdub-fr.org || (build 2550/release)
Библиотека кодирования : VirtualDubMod build 2550/release
Видео
Идентификатор : 0
Формат : MPEG-4 Visual
Профиль формата : Advanced [email protected]
Параметр BVOP формата : 2
Параметр QPel формата : Нет
Параметр GMC формата : Без точки перехода
Параметр матрицы формата : Default (H.263)
Режим смешивания : Сжатый битовый поток
Идентификатор кодека : XVID
Идентификатор кодека/Подсказка : XviD
Продолжительность : 53 м.
Битрейт : 2000 Кбит/сек
Ширина : 720 пикселей
Высота : 400 пикселей
Соотношение сторон : 16:9
Частота кадров : 25,000 кадров/сек
Цветовое пространство : YUV
Субдискретизация насыщенности : 4:2:0
Битовая глубина : 8 бит
Тип развёртки : Прогрессивная
Метод сжатия : С потерями
Бит/(Пиксели*Кадры) : 0.278
Размер потока : 761 Мбайт (94%)
Библиотека кодирования : XviD 1.2.1 (UTC 2008-12-04)
Аудио
Идентификатор : 1
Формат : AC-3
Формат/Информация : Audio Coding 3
Расширение режима : CM (complete main)
Параметр Endianness формата : Big
Идентификатор кодека : 2000
Продолжительность : 53 м.
Вид битрейта : Постоянный
Битрейт : 128 Кбит/сек
Каналы : 2 канала
Расположение каналов : Front: L R
Частота : 48,0 КГц
Битовая глубина : 16 бит
Метод сжатия : С потерями
Размер потока : 48,7 Мбайт (6%)
Выравнивание : Разделение по промежуткам
Продолжительность промежутка : 40 мс. (1,00 видеокадр)
Время предзагрузки промежутка : 500 мс.

Скриншоты

Яндекс.Метрика
Рейтинг@Mail.ru