Американская история ужасов / American Horror Story / Сезон: 6 / Серии: 1-4 (10) (Брэдли Букер / Bradley Buecker, ...) [2016 г., ужасы, триллер, драма, HDTVRip, 720p] MVO (Amedia) + Original (Eng) + Sub (Rus, Eng) [Обновляемая]

 

Создавать темы 10-Окт-2016 04:19

-Американская история ужасов / American Horror Story
«Get committed»
(6 сезон)
-- Производство: США
Жанр: ужасы, триллер, драма
Год выпуска: 2016 г.
Продолжительность: 4x ~00:42:00Перевод: Профессиональный (многоголосый, закадровый) [Amedia]
Оригинальный аудиопоток: английскийРежиссер: Брэдли Букер / Bradley Buecker, Альфонсо Гомес-Рехон / Alfonso Gomez-Rejon, Майкл Аппендаль / Michael Uppendahl, ...-В ролях: Леди Гага, Эван Питерс, Джессика Лэнг, Лили Рэйб, Фрэнсис Конрой, Сара Полсон, Таисса Фармига, Дэнис О`Харе, Закари Куинто, Дилан МакДермотт, Джэми Брюэр, Кэти Бэйтс, Джозеф Файнс, Лиззи Брошере, Эмма Робертс, Джеймс Кромуэлл, Конни Бриттон, Анджела Бассетт, Габури Сидибе, Кейт Мара-Описание: Тема шестого сезона находилась под строгой секретности до самой премьеры. Даже создавались постеры и тизеры, которые никак не относились к его тематике, чтобы еще более запутать зрителей.
Формат шестого сезона кардинально отличается от предыдущих. Сериал стал псевдодокументальным, в начале первой серии появляется надпись "Основано на реальных событиях". Сюжет вращается вокруг семьи Миллеров, которые переехали из Лос-Анджелеса в Северную Каролину, где столкнулись с призраками английских колонистов. На шоу под названием «Мой ночной кошмар в Роаноке» они рассказывают историю, которая приключилась с ними, а актеры отыгрывают их роли для телепостановки.- -Качество видео: HDTVRip
Контейнер: MKV
Стандарт разрешения: 720p
Видео кодек: H.264/AVC
Аудио кодек: AC3
Видео: 1280×720 at 25.000 fps, ~3370 Kbps avg
Аудио: Russian: 48 kHz, AC3, 2 ch, ~192.00.00 kbps avg |Многоголосый закадровый, Amedia|
Аудио #2: English: 48 kHz, AC3, 3/2 (L,C,R,l,r) + LFE ch, ~384.00.00 kbps avg
Cубтитры: Russian (Amedia), English

Media Info

Код:
Format : Matroska
Format version : Version 2
File size : 1.13 GiB
Duration : 40mn 5s
Overall bit rate : 4 027 Kbps
Encoded date : UTC 2016-09-15 09:08:06
Writing application : mkvmerge v7.9.0 ('Birds') 64bit
Writing library : libebml v1.3.1 + libmatroska v1.4.2
DURATION : 00:39:14.499000000
NUMBER_OF_FRAMES : 564
NUMBER_OF_BYTES : 16867
_STATISTICS_WRITING_APP : mkvmerge v7.9.0 ('Birds') 64bit
_STATISTICS_WRITING_DATE_UT : 2016-09-15 09:08:06
_STATISTICS_TAGS : BPS DURATION NUMBER_OF_FRAMES NUMBER_OF_BYTESVideo
ID : 1
Format : AVC
Format/Info : Advanced Video Codec
Format profile : [email protected]/* */
Format settings, CABAC : Yes
Format settings, ReFrames : 5 frames
Codec ID : V_MPEG4/ISO/AVC
Duration : 40mn 5s
Bit rate : 3 370 Kbps
Width : 1 280 pixels
Height : 720 pixels
Display aspect ratio : 16:9
Frame rate mode : Constant
Frame rate : 25.000 fps
Color space : YUV
Chroma subsampling : 4:2:0
Bit depth : 8 bits
Scan type : Progressive
Bits/(Pixel*Frame) : 0.146
Stream size : 967 MiB (84%)
Writing library : x264 core 148 r2705 3f5ed56
Encoding settings : cabac=1 / ref=5 / deblock=1:0:0 / analyse=0x3:0x113 / me=umh / subme=8 / psy=1 / psy_rd=1.00:0.00 / mixed_ref=1 / me_range=16 / chroma_me=1 / trellis=1 / 8x8dct=1 / cqm=0 / deadzone=21,11 / fast_pskip=1 / chroma_qp_offset=-2 / threads=22 / lookahead_threads=3 / sliced_threads=0 / nr=0 / decimate=1 / interlaced=0 / bluray_compat=0 / constrained_intra=0 / bframes=3 / b_pyramid=2 / b_adapt=2 / b_bias=0 / direct=3 / weightb=1 / open_gop=0 / weightp=2 / keyint=250 / keyint_min=23 / scenecut=40 / intra_refresh=0 / rc_lookahead=50 / rc=crf / mbtree=1 / crf=18.0 / qcomp=0.60 / qpmin=0 / qpmax=69 / qpstep=4 / ip_ratio=1.40 / aq=1:1.00
Language : English
Default : Yes
Forced : No
Matrix coefficients : BT.709
Color range : LimitedAudio #1
ID : 2
Format : AC-3
Format/Info : Audio Coding 3
Mode extension : CM (complete main)
Format settings, Endianness : Big
Codec ID : A_AC3
Duration : 40mn 5s
Bit rate mode : Constant
Bit rate : 192 Kbps
Channel(s) : 2 channels
Channel positions : Front: L R
Sampling rate : 48.0 KHz
Bit depth : 16 bits
Compression mode : Lossy
Stream size : 55.1 MiB (5%)
Language : Russian
Default : Yes
Forced : NoAudio #2
ID : 3
Format : AC-3
Format/Info : Audio Coding 3
Mode extension : CM (complete main)
Format settings, Endianness : Big
Codec ID : A_AC3
Duration : 40mn 5s
Bit rate mode : Constant
Bit rate : 384 Kbps
Channel(s) : 6 channels
Channel positions : Front: L C R, Side: L R, LFE
Sampling rate : 48.0 KHz
Bit depth : 16 bits
Compression mode : Lossy
Stream size : 110 MiB (10%)
Language : English
Default : No
Forced : NoText #1
ID : 4
Format : UTF-8
Codec ID : S_TEXT/UTF8
Codec ID/Info : UTF-8 Plain Text
Language : Russian
Default : No
Forced : NoText #2
ID : 5
Format : UTF-8
Codec ID : S_TEXT/UTF8
Codec ID/Info : UTF-8 Plain Text
Language : English
Default : No
Forced : No

Скриншот c названием фильма

Скриншоты

Яндекс.Метрика
Рейтинг@Mail.ru