Кингсглейв: Последняя фантазия XV / Kingsglaive: Final Fantasy XV (Такэси Нодзуэ / Takeshi Nozue) [2016, Мультфильм, Фантастика, Фэнтези, Боевик, Драма, Приключения, BDRip, 1080p-LQ] DUB (Лицензия BD EUR)

 

Создавать темы 09-Окт-2016 11:36

-Кингсглейв: Последняя фантазия XV / Kingsglaive: Final Fantasy XV
« Моя жизнь - ничто. Дать будущее тем, кто желает его увидеть - важнее всего! »
- Производство: Япония / Square USA, Square Enix Co. Ltd.
Жанр: Мультфильм, Фантастика, Фэнтези, Боевик, Драма, Приключения
Режиссер: Такэси Нодзуэ
Актеры: Аарон Пол, Шон Бин, Лина Хиди, Дэвид Гант, Дэрин Де Пол, Тревор Дивэлл, Адриан Буше, Джон ДеМита, Андреа Тивадар, Тодд Хаберкорн, Макс Миттелман, Рэй Чейз, Адам Кроусделл, Кристофер Л. Парсон, Робби Дэймонд, Дэвид Чунг, Шон МакКи
Описание:
Волшебное королевство Люцис является домом для священного Кристалла, но враждебная империя Нифльхейм не остановится ни перед чем, чтобы захватить реликвию. Король Люциса Регис возглавляет элитный отряд солдат, именуемых «Кингсглейв». Вооружившись магией короля, Никс Ульрик и его верные товарищи из Кингсглейв становятся на защиту столицы Инсомния, чтобы остановить неумолимое наступление имперской армии. Перед превосходящими силами Нифльхейма Королю Регису ничего не остаётся, как согласиться на ультиматум, уступив все свои земли за пределами столицы и женив своего сына Ноктиса на Леди Лунафрее, бывшей принцессе ныне захваченной земли Тенебра. В разбушевавшейся войне махинации Нифльхейма превращают Инсомнию в грандиозное поле битвы, затягивая Никса в борьбу за выживание всего королевства.


Возраст: 12+ (зрителям, достигшим 12 лет)
Рейтинг MPAA: PG-13 (детям до 13 лет просмотр нежелателен)
Продолжительность: 01:55:34
Качество видео: BDRip 1080p-LQ Sample
Перевод: Профессиональный (многоголосый, закадровый) (Лицензия BD EUR)
Вид субтитров: Вшитые, отключаемые
Язык субтитров: Русский, Английский
Видео: AVC/H.264, 4 958 Kbps, 1920x802
Аудио: AC3, 6 ch, 448 Kbps - Русский

МИ

General
Complete name : C:\HD Video\Кингсглейв. Последняя фантазия XV 2016 Mvo Rus BDRip 1080p.mkv
Format : Matroska
Format version : Version 2
File size : 4.37 GiB
Duration : 1h 55mn
Overall bit rate : 5 410 Kbps
Movie name : Кингсглейв. Последняя фантазия XV 2016 Mvo Rus BDRip 1080p By Magnettо 83
Encoded date : UTC 2016-09-27 11:29:03
Writing application : mkvmerge v5.2.0 ('I can't explain') built on Dec 18 2011 18:12:03
Writing library : libebml v1.2.3 + libmatroska v1.3.0
Video
ID : 1
Format : AVC
Format/Info : Advanced Video Codec
Format profile : [url=mailto:[email protected]][email protected][/url]
Format settings, CABAC : Yes
Format settings, ReFrames : 5 frames
Codec ID : V_MPEG4/ISO/AVC
Duration : 1h 55mn
Bit rate : 4 958 Kbps
Width : 1 920 pixels
Height : 802 pixels
Display aspect ratio : 2.40:1
Frame rate mode : Constant
Frame rate : 23.976 fps
Color space : YUV
Chroma subsampling : 4:2:0
Bit depth : 8 bits
Scan type : Progressive
Bits/(Pixel*Frame) : 0.134
Stream size : 3.92 GiB (90%)
Title : Кингсглейв. Последняя фантазия XV 2016 BDRip 1080p
Writing library : x264 core 146 r2538 121396c
Encoding settings : cabac=1 / ref=5 / deblock=1:-1:-1 / analyse=0x3:0x113 / me=umh / subme=11 / psy=1 / psy_rd=1.00:0.00 / mixed_ref=1 / me_range=32 / chroma_me=1 / trellis=2 / 8x8dct=1 / cqm=0 / deadzone=21,11 / fast_pskip=0 / chroma_qp_offset=-2 / threads=3 / lookahead_threads=1 / sliced_threads=0 / nr=0 / decimate=1 / interlaced=0 / bluray_compat=0 / constrained_intra=0 / bframes=8 / b_pyramid=2 / b_adapt=2 / b_bias=0 / direct=3 / weightb=1 / open_gop=0 / weightp=2 / keyint=250 / keyint_min=23 / scenecut=40 / intra_refresh=0 / rc=2pass / mbtree=0 / bitrate=4958 / ratetol=1.0 / qcomp=0.60 / qpmin=0 / qpmax=69 / qpstep=4 / cplxblur=20.0 / qblur=0.5 / ip_ratio=1.40 / pb_ratio=1.30 / aq=2:1.00
Default : Yes
Forced : No
Audio
ID : 2
Format : AC-3
Format/Info : Audio Coding 3
Mode extension : CM (complete main)
Format settings, Endianness : Big
Codec ID : A_AC3
Duration : 1h 55mn
Bit rate mode : Constant
Bit rate : 448 Kbps
Channel(s) : 6 channels
Channel positions : Front: L C R, Side: L R, LFE
Sampling rate : 48.0 KHz
Bit depth : 16 bits
Compression mode : Lossy
Stream size : 370 MiB (8%)
Title : DD 5.1 @ 448 Kbps - MVO Лицензия (Blu-ray CEE)
Language : Russian
Default : Yes
Forced : No
Text #1
ID : 3
Format : UTF-8
Codec ID : S_TEXT/UTF8
Codec ID/Info : UTF-8 Plain Text
Title : Full
Language : Russian
Default : No
Forced : No
Text #2
ID : 4
Format : UTF-8
Codec ID : S_TEXT/UTF8
Codec ID/Info : UTF-8 Plain Text
Title : Full
Language : English
Default : No
Forced : No
Menu
00:00:00.000 : en:
00:12:06.976 : en:
00:15:48.530 : en:
00:20:23.847 : en:
00:25:41.998 : en:
00:32:14.724 : en:
00:39:02.214 : en:
00:43:44.788 : en:
00:50:06.294 : en:
00:54:59.421 : en:
01:02:13.521 : en:
01:12:55.287 : en:
01:21:00.230 : en:
01:26:24.512 : en:
01:37:18.374 : en:
01:41:57.152 : en:
Скриншоты:
Яндекс.Метрика
Рейтинг@Mail.ru