Неистовый Санта / All Through the House (Тодд Нюнс / Todd Nunes) [2015, Ужасы, HDRip] VO (Хихикающий доктор)

 

Создавать темы 09-Окт-2016 11:05

- Неистовый Санта / All Through the House - Производство: США, Readmond Company
Жанр: Ужасы
Режиссер: Тодд Нюнс
Актеры: Эшли Мэри Нюнс, Джессика Камерон, Лито Веласко, Джоанна Рэй, Мэтт Пошль, Келси Карлстедт
Описание:
Невменяемый маскируется под Санту и приезжает в город для рождественского террора. Он оставляет за собой кровавый след из изуродованных тел зарезанных женщин и кастрированных мужчин, питая особую тайную страсть к мужским фаллосам. Какую ужасную тайну скрывает этот человек в маске?(с) Хихидок


Продолжительность: 01:28:24
Качество видео: HDRip Sample
Перевод: Одноголосый закадровый любительский (Хихикающий доктор)
Реклама: В начале и в конце присутствует реклама! (Совсем немного)
Видео: Xvid, 720x400, ~1846 Kbps
Аудио 1: Русский (MP3, 2 ch, 192 Kbps, CBR)
Аудио 2: Английский (AC3, 6 ch, 384 Kbps, CBR)

МИ

бщее
Полное имя                               : E:\MMMM\All.Through.the.House.2015.HDRip.XviD.avi
Формат                                   : AVI
Формат/Информация                        : Audio Video Interleave
Размер файла                             : 1,50 Гбайт
Продолжительность                        : 1 ч. 28 м.
Общий поток                              : 2436 Кбит/сек
Программа кодирования                    : VirtualDubMod 1.5.10.2 (build 2540/release)
Библиотека кодирования                   : VirtualDubMod build 2540/release
Видео
Идентификатор                            : 0
Формат                                   : MPEG-4 Visual
Профиль формата                          : Advanced [email protected]
Параметр BVOP формата                    : 2
Параметр QPel формата                    : Нет
Параметр GMC формата                     : Без точки перехода
Параметр матрицы формата                 : Default (H.263)
Режим смешивания                         : Сжатый битовый поток
Идентификатор кодека                     : XVID
Идентификатор кодека/Подсказка           : XviD
Продолжительность                        : 1 ч. 28 м.
Битрейт                                  : 1846 Кбит/сек
Ширина                                   : 720 пикселей
Высота                                   : 400 пикселей
Соотношение сторон                       : 16:9
Частота кадров                           : 23,976 (23976/1000) кадра/сек
Цветовое пространство                    : YUV
Субдискретизация насыщенности            : 4:2:0
Битовая глубина                          : 8 бит
Тип развёртки                            : Прогрессивная
Метод сжатия                             : С потерями
Бит/(Пиксели*Кадры)                      : 0.267
Размер потока                            : 1,14 Гбайт (76%)
Библиотека кодирования                   : XviD 66
Аудио #1
Идентификатор                            : 1
Формат                                   : MPEG Audio
Версия формата                           : Version 1
Профиль формата                          : Layer 3
Идентификатор кодека                     : 55
Идентификатор кодека/Подсказка           : MP3
Продолжительность                        : 1 ч. 28 м.
Вид битрейта                             : Постоянный
Битрейт                                  : 192 Кбит/сек
Каналы                                   : 2 канала
Частота                                  : 44,1 КГц
Метод сжатия                             : С потерями
Размер потока                            : 121 Мбайт (8%)
Выравнивание                             : Разделение по промежуткам
Продолжительность промежутка             : 42  мс. (1,00 видеокадр)
Время предзагрузки промежутка            : 500  мс.
Аудио #2
Идентификатор                            : 2
Формат                                   : AC-3
Формат/Информация                        : Audio Coding 3
Расширение режима                        : CM (complete main)
Параметр Endianness формата              : Big
Идентификатор кодека                     : 2000
Продолжительность                        : 1 ч. 28 м.
Вид битрейта                             : Постоянный
Битрейт                                  : 384 Кбит/сек
Каналы                                   : 6 каналов
Расположение каналов                     : Front: L C R, Side: L R, LFE
Частота                                  : 48,0 КГц
Частота кадров                           : 31,250 кадров/сек (1536 spf)
Метод сжатия                             : С потерями
Размер потока                            : 243 Мбайт (16%)
Выравнивание                             : Соединение по промежуткам
Продолжительность промежутка             : 42  мс. (1,00 видеокадр)
Время предзагрузки промежутка            : 512  мс.
Скриншоты:

Дополнительные скриншоты:

Яндекс.Метрика
Рейтинг@Mail.ru