Проект А / «A» gai wak (Джеки Чан / Jackie Chan, Саммо Хунг Кам-Бо / Sammo Kam-Bo Hung) [1983 г., боевик, комедия, BDRip] DVO + Sub (Rus, Eng)

 

Создавать темы 09-Окт-2016 04:46

-Проект А / «A» gai wak-- Производство: Гонконг, Golden Harvest Company Ltd.
Год выпуска: 1983 г.
Жанр: боевик, комедия
Продолжительность: 01:45:20Мировая премьера: 22 декабря 1983
Дата выхода DVD: 3 августа 2006, «CP-Digital»
Перевод: Профессиональный (двухголосый, закадровый)
Режиссер: Джеки Чан / Jackie Chan, Саммо Хунг Кам-Бо / Sammo Kam-Bo Hung-В ролях: Джеки Чан, Саммо Хунг Кам-Бо, Юэнь Бяо, Дик Вэй, Марс, Винни Вонг, По Тай, Ву Лонг, Чунг Хой, Сан Ли, Хой-Шан Кван-Описание: Гонконг начала 20 века. На китайском море свирепствуют пираты под предводительством зловещего пирата Ло. Все свои надежды правительство возлагает на специально разработанный план борьбы с пиратами под кодовым названием «Проект А».Но Ло всегда на шаг опережает власти, подрывает их корабли, и «проект» оказывается под угрозой срыва. Его выполнение берут на себя борец береговой охраны по кличке «Дракон» и его товарищи…-
Качество видео: BDRip
Контейнер: AVI
Видео кодек: XviD
Аудио кодек: AC3
Видео: 720x304 (2.37:1), 23.976 fps, XviD build 50 ~2183 kbps avg, 0.42 bit/pixel
Аудио: 48 kHz, AC3 Dolby Digital, 3/2 (L,C,R,l,r) + LFE ch, ~384 kbps
Cубтитры: русские, английские
Формат субтитров: softsub (SRT)
Доп. информация о субтитрах: внешние

Доп. информация

Джеки с командой обучался строевой подготовке и умению правильно маршировать в Королевской Гонконгской Морской Полицейской Корпорации.
Часовая башня в фильме была создана благодаря вдохновению, полученному от часовой башни Коулун-кантонской железной дороги, построенной в 1915 году. Та башня, что мы видим в фильме, была построена на студии Golden Harvest. Настоящая часовая башня Коулун-кантонской железной дороги была построена и сдана в эксплуатацию в 1921 году, как часть конечной остановки железнодорожной магистрали. Конечная остановка в 1975 году была перенесена в Hung Hom, и теперь в память о ней остается лишь часовая башня в Цим Ша Цуи.
В результате падения с часовой башни Чан получил повреждение позвоночника, растяжение связок шеи, а также повредил горло. Снова сломаны нос и пальцы рук. Дублей было 3 и все они вошли в фильм.
Фильм снимался в течение 2-х лет.

Награды

Гонконгский киноприз за постановку боевых сцен (Тан Имчань).

Рецензия

На мой взгляд, это шедевр. И, кроме того, лучший фильм Джеки Чана: ни до, ни после ему не удавалось достичь таких запредельных высот. С этим фильмом Джеки действительно ПРОГРЕМЕЛ — иначе сказать нельзя.Конечно, ему было у кого поучиться. С одной стороны, множество китайских боевиков с каратэ и кунфу. С другой стороны — шедевральные комедийные боевики с Теренсом Хиллом и Бадом Спенсером:"… иначе мы рассердимся», «Борцы с преступностью», «Орёл или решка», «Найдёшь друга — обретёшь сокровище»… В творчестве Джеки Чана я нахожу немалое сходство с этими фильмами, которые к тому времени уже вышли на экран. Но Джеки обогатил жанр комедийного боевика множеством своих собственных придумок. Кроме того, надо отметить, что «Проект А» имеет очень своеобразный и при этом очень сильный сюжет с историческим уклоном. Знание истории там — на высшем уровне. Юмор — на высшем уровне. Драки — на высшем уровне. Слабых мест в фильме нет вообще.Из юмористических сцен мне особенно понравился диалог:- Пароль?
- Можешь избить меня!Кроме главных героев — самого Джеки и Саммо Хунга — чрезвычайно понравился атаман пиратов. Какой колоритный тип!Оценка: смотреть обязательно!10 из 10

Media Info

Общее
Полное имя : F:\Проект А\Proekt A.1983.BDRip.[pirat.ca]\Proekt A.1983.BDRip.[pirat.ca].avi
Формат : AVI
Формат/Информация : Audio Video Interleave
Размер файла : 1,90 Гбайт
Продолжительность : 1 ч. 45 м.
Общий поток : 2576 Кбит/сек
Программа кодирования : VirtualDubMod 1.5.10.3 (build 2550/release)
Библиотека кодирования : VirtualDubMod build 2550/releaseВидео
Идентификатор : 0
Формат : MPEG-4 Visual
Профиль формата : Advanced [email protected]/* */
Параметр BVOP формата : 1
Параметр QPel формата : Нет
Параметр GMC формата : Без точки перехода
Параметр матрицы формата : Выборочная
Идентификатор кодека : XVID
Идентификатор кодека/Подсказка : XviD
Продолжительность : 1 ч. 45 м.
Битрейт : 2183 Кбит/сек
Ширина : 720 пикселей
Высота : 304 пикселя
Соотношение сторон : 2,35:1
Частота кадров : 23,976 (24000/1001) кадра/сек
Цветовое пространство : YUV
Субдискретизация насыщенности : 4:2:0
Битовая глубина : 8 бит
Тип развёртки : Прогрессивная
Метод сжатия : С потерями
Бит/(Пиксели*Кадры) : 0.416
Размер потока : 1,61 Гбайт (85%)
Библиотека кодирования : XviD 1.2.1 (UTC 2008-12-04)Аудио
Идентификатор : 1
Формат : AC-3
Формат/Информация : Audio Coding 3
Расширение режима : CM (complete main)
Параметр Endianness формата : Big
Идентификатор кодека : 2000
Продолжительность : 1 ч. 45 м.
Вид битрейта : Постоянный
Битрейт : 384 Кбит/сек
Каналы : 6 каналов
Расположение каналов : Front: L C R, Side: L R, LFE
Частота : 48,0 КГц
Частота кадров : 31,250 кадров/сек (1536 spf)
Метод сжатия : С потерями
Размер потока : 289 Мбайт (15%)
Выравнивание : Разделение по промежуткам
Продолжительность промежутка : 42 мс. (1,00 видеокадр)
Время предзагрузки промежутка : 500 мс.

Скриншот c названием фильма

Скриншоты

-Трейлер
Яндекс.Метрика
Рейтинг@Mail.ru