[ Сегодня на трекере фрилич! Идет свободное скачивание без начисления Download ]

Сомнус / Somnus (Крис Рединг / Chris Reading) [2016 г., Фантастика, Триллер, Приключения, WEB-DLRip] VO + Original (Eng)

 

Создавать темы 09-Окт-2016 04:39

-Сомнус / Somnus-- Производство: Великобритания, Epic Pictures, ...
Год выпуска: 2016 г.
Жанр: Фантастика, Триллер, Приключения
Продолжительность: 01:22:55Перевод: Любительский (одноголосый, закадровый) [BadBajo]
Оригинальный аудиопоток: английскийРежиссер: Крис Рединг / Chris Reading-В ролях: Рохит Гокани, Виктория Джейн Оливер, Роберт Милер, Уэйн Сванн, Том Бонингтон, Клеменс Керинг, Дженнифер Мойлан-Тейлор, Мак МакДональд, Даррен Хайэм, Дон МакКоркиндэйл..-Описание: Экипаж устаревшего космического корабля отправляется на их заключительную миссию Земля-Марс. Но сбой в навигационном оборудовании приводит к тому, что маршрут изменяется и они прибывают в Сомнус, отдалённую астероидную колонию. Вскоре, команда обнаруживает, что жители этого места имеют некую тёмную тайну, а также планы, относительно будущего человечества.-
Качество видео: WEB-DLRip
Контейнер: AVI
Видео кодек: Другой MPEG4
Аудио кодек: AC3
Видео: 736x304 (2.42:1), 23.976 fps, ~1426 kbps avg, 0.27 bit/pixel Audio
Аудио: 48 kHz, AC3 Dolby Digital, 2/0 (L,R) ch, ~384 kbps
Аудио #2: 48 kHz, AC3 Dolby Digital, 2/0 (L,R) ch, ~384 kbps
Cубтитры: отсутствуют

Media Info

ормат/Информация : Audio Video Interleave
Профиль формата : OpenDML
Размер файла : 1,05 Гбайт
Продолжительность : 1 ч. 22 м.
Общий поток : 1817 Кбит/сек
Программа кодирования : Lavf51.12.1Видео
Идентификатор : 0
Формат : MPEG-4 Visual
Профиль формата : [email protected]/* */
Параметр BVOP формата : Нет
Параметр QPel формата : Нет
Параметр GMC формата : Без точки перехода
Параметр матрицы формата : Default (H.263)
Идентификатор кодека : FMP4
Продолжительность : 1 ч. 22 м.
Битрейт : 1028 Кбит/сек
Ширина : 736 пикселей
Высота : 304 пикселя
Соотношение сторон : 2,40:1
Частота кадров : 23,976 кадра/сек
Цветовое пространство : YUV
Субдискретизация насыщенности : 4:2:0
Битовая глубина : 8 бит
Тип развёртки : Прогрессивная
Метод сжатия : С потерями
Бит/(Пиксели*Кадры) : 0.192
Размер потока : 609 Мбайт (57%)
Библиотека кодирования : Lavc51.40.4Аудио #1
Идентификатор : 1
Формат : AC-3
Формат/Информация : Audio Coding 3
Расширение режима : CM (complete main)
Параметр Endianness формата : Big
Идентификатор кодека : 2000
Продолжительность : 1 ч. 22 м.
Вид битрейта : Постоянный
Битрейт : 384 Кбит/сек
Каналы : 2 канала
Расположение каналов : Front: L R
Частота : 48,0 КГц
Частота кадров : 31,250 кадров/сек (1536 spf)
Битовая глубина : 16 бит
Метод сжатия : С потерями
Размер потока : 228 Мбайт (21%)
Выравнивание : Соединение по промежуткам
Продолжительность промежутка : 32 мс. (0,77 видеокадр)
Время предзагрузки промежутка : 32 мс.Аудио #2
Идентификатор : 2
Формат : AC-3
Формат/Информация : Audio Coding 3
Расширение режима : CM (complete main)
Параметр Endianness формата : Big
Идентификатор кодека : 2000
Продолжительность : 1 ч. 22 м.
Вид битрейта : Постоянный
Битрейт : 384 Кбит/сек
Каналы : 2 канала
Расположение каналов : Front: L R
Частота : 48,0 КГц
Частота кадров : 31,250 кадров/сек (1536 spf)
Битовая глубина : 16 бит
Метод сжатия : С потерями
Размер потока : 228 Мбайт (21%)
Выравнивание : Соединение по промежуткам
Продолжительность промежутка : 32 мс. (0,77 видеокадр)
Время предзагрузки промежутка : 32 мс.

Скриншот c названием фильма

Скриншоты

-Трейлер
Яндекс.Метрика
Рейтинг@Mail.ru