[ Сегодня на трекере фрилич! Идет свободное скачивание без начисления Download ]

Хранитель Лев / The Lion Guard / Сезон: 1 / Серии: 00-10(11) из ? (Хауи Паркинс / Howy Parkins) [2016 г., мультфильм, мюзикл, приключения, семейный, 0+, SATRip] [пополняемая] Dub [Канал Дисней]

 

Создавать темы 09-Окт-2016 04:31

-Хранитель Лев / The Lion Guard / пополняемая-- Производство: США, Disney Television Animation, Lioness Productions
Режиссер: Хауи Паркинс / Howy Parkins
Жанр: мультфильм, мюзикл, приключения, семейный, 0+
Год выпуска: 2016 г.
Продолжительность: 00:21:36Мировая премьера: 15 января 2016
Российская премьера: 10 сентября 2016
Перевод: Профессиональный (полное дублирование) [Канал Дисней]
Роли озвучивали: Джефф Беннетт, Дусан Браун, Макс Чарльз, Сара Хайланд, Джеймс Эрл Джонс, Эндрю Кисино, Роб Лоу, Хари Пэйтон, Мэдисон Петтис, Джонни Рис, Иден Ригел, Джошуа Раш, Эрни Сабелла, Кевин Шон, Аттикус Шаффер, Гэбриэл Юнион, Даймонд Уайт-Описание: Львёнок по имени Кион — второй детёныш Симбы и Налы, младший брат Киары. Пришло время, когда он неожиданно для себя овладел рыком древних — способностью всех вторых детей в королевской семье, благодаря которой они становятся лидерами львиной гвардии. Львиная гвардия — отряд из пяти львов, защищающих земли Прайда и круг жизни: самого свирепого (лидера), самого смелого, самого сильного, самого быстрого и самого зоркого. Но вместо того, чтобы собрать отряд львов, Кион собрал отряд самых разных животных, в чьих способностях и верности был уверен.-Сэмпл КиноПоиск
Качество видео: SATRip
Контейнер: AVI
Видео кодек: XviD
Аудио кодек: AC3
Видео: 720x400 (1.80:1), 25 fps, XviD build 50 ~1803 kbps avg, 0.25 bit/pixel
Аудио: 48 kHz, AC3 Dolby Digital, 2/0 (L,R) ch, ~192 kbps, CBR
Cубтитры: отсутствуют

Media Info

Общее
Полное имя : E:\Страж-лев\Страж-лев (Львиная Гвардия).The Lion Guard.S01.2016.SATRip.[pirat.ca]\Страж-лев - The Lion Guard. Серия 00 (2016).avi
Формат : AVI
Формат/Информация : Audio Video Interleave
Размер файла : 601 Мбайт
Продолжительность : 41 м.
Общий поток : 2005 Кбит/сек
Программа кодирования : VirtualDubMod 1.5.10.3 | www.virtualdub-fr.org || (build 2550/release)
Библиотека кодирования : VirtualDubMod build 2550/releaseВидео
Идентификатор : 0
Формат : MPEG-4 Visual
Профиль формата : Advanced [email protected]/* */
Параметр BVOP формата : 2
Параметр QPel формата : Нет
Параметр GMC формата : Без точки перехода
Параметр матрицы формата : Default (MPEG)
Идентификатор кодека : XVID
Идентификатор кодека/Подсказка : XviD
Продолжительность : 41 м.
Битрейт : 1804 Кбит/сек
Ширина : 720 пикселей
Высота : 400 пикселей
Соотношение сторон : 16:9
Частота кадров : 25,000 кадров/сек
Цветовое пространство : YUV
Субдискретизация насыщенности : 4:2:0
Битовая глубина : 8 бит
Тип развёртки : Прогрессивная
Метод сжатия : С потерями
Бит/(Пиксели*Кадры) : 0.250
Размер потока : 541 Мбайт (90%)
Библиотека кодирования : XviD 1.2.1 (UTC 2008-12-04)Аудио
Идентификатор : 1
Формат : AC-3
Формат/Информация : Audio Coding 3
Расширение режима : CM (complete main)
Параметр Endianness формата : Big
Идентификатор кодека : 2000
Продолжительность : 41 м.
Вид битрейта : Постоянный
Битрейт : 192 Кбит/сек
Каналы : 2 канала
Расположение каналов : Front: L R
Частота : 48,0 КГц
Частота кадров : 31,250 кадров/сек (1536 spf)
Метод сжатия : С потерями
Размер потока : 57,6 Мбайт (10%)
Выравнивание : Разделение по промежуткам
Продолжительность промежутка : 40 мс. (1,00 видеокадр)
Время предзагрузки промежутка : 500 мс.

Скриншот c названием мультфильма

Скриншоты

Трейлер
Яндекс.Метрика
Рейтинг@Mail.ru