Отряд самоубийц / Suicide Squad (2016) WEBRip [H.264/1080p-LQ] [Звук с TS]

 

Создавать темы 08-Окт-2016 12:33

- Отряд самоубийц / Suicide Squad (2016) WEBRip [H.264/1080p-LQ] [Звук с TS]- Производство: США
Жанр: Фантастика, Фэнтези, Боевик, Приключения
Режиссер: Дэвид Эйр
Продюсер: Брюс Франклин, Энди Хорвитц, Джефф Джонс
Актеры: Марго Робби, Уилл Смит, Джаред Лето, Джай Кортни, Кара Делевинь, Джей Эрнандес, Юэль Киннаман, Виола Дэвис, Адевале Акинойе-Агбаже, Скотт Иствуд.
Описание:
Правительство решает дать команде суперзлодеев шанс на искупление. Подвох в том, что их отправляют на миссию, где они, вероятнее всего, погибнут.-Возраст: 16+ (зрителям, достигшим 16 лет)
Рейтинг MPAA: PG-13 (детям до 13 лет просмотр нежелателен)
Дата мировой премьеры: 1 августа 2016
Дата российской премьеры: 4 августа 2016, «Каро-Премьер»-Релиз от: KOSHARA-Продолжительность: 02:02:43
Качество видео: WEBRip 1080p-LQ[thumb]http://sendfile.su/1272469[/thumb]
Перевод: Дублированный (Звук с TS)
Язык субтитров: Корейский
Вид субтитров: Вшитые неотключаемые
Реклама: Присутствуют голосовые и текстовые вставки рекламы, а также рекламный ролик.
Видео: AVC/H.264, 1920x800, ~6343 кб/с
Аудио: AC3, 2 ch, 384 кб/с, CBR

MI

Общее
Уникальный идентификатор                 : 179123652693604633210712195687757801189 (0x86C1F5ECF747AA88BBD253F8110666E5)
Полное имя                               : D:\Фильмы\Мои раздачи\Отряд самоубийц\Otriyd.SamouUbiyTs.2O16.Dt.HDTV.1O8Op_KOSHARA.mkv
Формат                                   : Matroska
Версия формата                           : Version 2
Размер файла                             : 5,88 Гбайт
Продолжительность                        : 2 ч. 2 м.
Режим общего битрейта                    : Переменный
Общий поток                              : 6864 Кбит/сек
Дата кодирования                         : UTC 2016-10-07 20:35:55
Программа кодирования                    : mkvmerge v8.3.0 ('Over the Horizon') 64bit
Библиотека кодирования                   : libebml v1.3.1 + libmatroska v1.4.2
DURATION                                 : 02:02:43.712000000
NUMBER_OF_FRAMES                         : 230116
NUMBER_OF_BYTES                          : 353458176
_STATISTICS_WRITING_APP                  : mkvmerge v8.3.0 ('Over the Horizon') 64bit
_STATISTICS_WRITING_DATE_UTC             : 2016-10-07 20:35:55
_STATISTICS_TAGS                         : BPS DURATION NUMBER_OF_FRAMES NUMBER_OF_BYTES
Видео
Идентификатор                            : 1
Формат                                   : AVC
Формат/Информация                        : Advanced Video Codec
Профиль формата                          : [url=mailto:[email protected]][email protected][/url]
Параметр CABAC формата                   : Да
Параметр ReFrames формата                : 5 кадров
Идентификатор кодека                     : V_MPEG4/ISO/AVC
Продолжительность                        : 2 ч. 2 м.
Вид битрейта                             : Переменный
Битрейт                                  : 6343 Кбит/сек
Максимальный битрейт                     : 6900 Кбит/сек
Ширина                                   : 1920 пикселей
Высота                                   : 800 пикселей
Соотношение сторон                       : 2,40:1
Режим частоты кадров                     : Постоянный
Частота кадров                           : 29,970 кадров/сек
Стандарт вещания                         : Component
Цветовое пространство                    : YUV
Субдискретизация насыщенности            : 4:2:0
Битовая глубина                          : 8 бит
Тип развёртки                            : Прогрессивная
Бит/(Пиксели*Кадры)                      : 0.138
Размер потока                            : 5,44 Гбайт (92%)
Default                                  : Да
Forced                                   : Нет
Основные цвета                           : BT.709
Характеристики трансфера                 : BT.709
Коэффициенты матрицы                     : BT.709
Аудио
Идентификатор                            : 2
Формат                                   : AC-3
Формат/Информация                        : Audio Coding 3
Расширение режима                        : CM (complete main)
Параметр Endianness формата              : Big
Идентификатор кодека                     : A_AC3
Продолжительность                        : 2 ч. 2 м.
Вид битрейта                             : Постоянный
Битрейт                                  : 384 Кбит/сек
Каналы                                   : 2 канала
Расположение каналов                     : Front: L R
Частота                                  : 48,0 КГц
Битовая глубина                          : 16 бит
Метод сжатия                             : С потерями
Размер потока                            : 337 Мбайт (6%)
Default                                  : Да
Forced                                   : Нет
Скриншоты:
Яндекс.Метрика
Рейтинг@Mail.ru