Неваляшка [сезон 1, серии 1-4 из 4] (Роман Просвирнин) [2016, мелодрама,) WEB-DLRip]

 

Создавать темы 08-Окт-2016 07:50

- Неваляшка (сезон 1, серии 1-4 из 4) - Производство: Россия / кинокомпания "Русское"
Жанр: мелодрама
Режиссер: Роман Просвирнин
Актеры: Анастасия Мытражик, Дмитрий Миллер, Леонид Громов, Елена Валюшкина, Дмитрий Шаракоис, Роман Курцын, Мария Горбань, Александр Константинов, Николай Лунин, Ульяна Куликова, Анатолий Наумов и др
Описание:
Вале скоро 30 лет, но родители опекают ее, как ребенка, и контролируют каждый шаг. На примете у них есть и кандидат в мужья для дочери – занудный «ботаник» и маменькин сынок Сереженька. Подруга посмеивается над безвольной Валей и зовёт ее «неваляшкой». Однажды Валя решает вырваться из-под родительского крыла и начать жить самостоятельно. Но готова ли изнеженная неваляшка ко взрослой жизни?


Возраст: 12+ (зрителям, достигшим 12 лет)
Дата российской премьеры: 1.10.2016

Продолжительность: ~ 00:50:00 серия (в одном файле 2 серии)
Качество видео: WEB-DLRip
Видео: H.264/AVC, 1024x576, ~2000 Кбит/с
Аудио: АС3, 2 канала, 192 Кбит/с

Mediainfo:

Общее
Уникальный идентификатор                 : 195955027682610137077416113533683361540 (0x936B90C85332F2C2B9C317A9D021E704)
Полное имя                               : D:\СЕРИАЛЫ\Неваляшка.(2016).WEB-DLRip.(AVC).Files-x\01.Неваляшка.(2016).WEB-DLRip.AVC.by.Серый1779.Files-x.mkv
Формат                                   : Matroska
Версия формата                           : Version 2
Размер файла                             : 1,40 Гбайт
Продолжительность                        : 1 ч. 31 м.
Общий поток                              : 2193 Кбит/сек
Дата кодирования                         : UTC 2016-10-02 07:04:11
Программа кодирования                    : mkvmerge v6.1.0 ('Old Devil') built on Mar  4 2013 09:10:42
Библиотека кодирования                   : libebml v1.3.0 + libmatroska v1.4.0
Видео
Идентификатор                            : 1
Формат                                   : AVC
Формат/Информация                        : Advanced Video Codec
Профиль формата                          : [url=mailto:[email protected]][email protected][/url]
Параметр CABAC формата                   : Да
Параметр ReFrames формата                : 9 кадров
Идентификатор кодека                     : V_MPEG4/ISO/AVC
Продолжительность                        : 1 ч. 31 м.
Битрейт                                  : 2000 Кбит/сек
Ширина                                   : 1024 пикселя
Высота                                   : 576 пикселей
Соотношение сторон                       : 16:9
Режим частоты кадров                     : Постоянный
Частота кадров                           : 25,000 кадров/сек
Цветовое пространство                    : YUV
Субдискретизация насыщенности            : 4:2:0
Битовая глубина                          : 8 бит
Тип развёртки                            : Прогрессивная
Бит/(Пиксели*Кадры)                      : 0.136
Размер потока                            : 1,25 Гбайт (89%)
Библиотека кодирования                   : x264 core 130 r2273 b3065e6
Настройки программы                      : cabac=1 / ref=9 / deblock=1:-2:-1 / analyse=0x3:0x133 / me=umh / subme=9 / psy=1 / psy_rd=1.00:0.15 / mixed_ref=1 / me_range=32 / chroma_me=1 / trellis=2 / 8x8dct=1 / cqm=0 / deadzone=21,11 / fast_pskip=0 / chroma_qp_offset=-3 / threads=6 / lookahead_threads=1 / sliced_threads=0 / nr=0 / decimate=1 / interlaced=fake / bluray_compat=0 / constrained_intra=0 / bframes=9 / b_pyramid=2 / b_adapt=2 / b_bias=0 / direct=1 / weightb=1 / open_gop=0 / weightp=2 / keyint=250 / keyint_min=25 / scenecut=40 / intra_refresh=0 / rc=2pass / mbtree=0 / bitrate=2000 / ratetol=1.0 / qcomp=0.60 / qpmin=0 / qpmax=69 / qpstep=4 / cplxblur=20.0 / qblur=0.5 / ip_ratio=1.40 / pb_ratio=1.30 / aq=2:1.00
Default                                  : Да
Forced                                   : Нет
Цветовой диапазон                        : Limited
Основные цвета                           : BT.709
Характеристики трансфера                 : BT.709
Коэффициенты матрицы                     : BT.709
Аудио
Идентификатор                            : 2
Формат                                   : AC-3
Формат/Информация                        : Audio Coding 3
Расширение режима                        : CM (complete main)
Параметр Endianness формата              : Big
Идентификатор кодека                     : A_AC3
Продолжительность                        : 1 ч. 31 м.
Вид битрейта                             : Постоянный
Битрейт                                  : 192 Кбит/сек
Каналы                                   : 2 канала
Расположение каналов                     : Front: L R
Частота                                  : 44,1 КГц
Частота кадров                           : 28,711 кадров/сек (1536 spf)
Метод сжатия                             : С потерями
Размер потока                            : 126 Мбайт (9%)
Default                                  : Да
Forced                                   : Нет
Скриншоты:
Яндекс.Метрика
Рейтинг@Mail.ru