[ Сегодня на трекере фрилич! Идет свободное скачивание без начисления Download ]

Оцепенелый / Numb (Джейсон Р. Гуд / Jason R. Goode) [2015, Триллер, Детектив, WEB-DLRip]

 

Создавать темы 08-Окт-2016 07:29

- Оцепенелый / Numb - Производство: Канада
Жанр: Триллер, Детектив
Режиссер: Джейсон Р. Гуд
Актеры: Джейми Бамбер, Мари Авгеропулос, Алекс Паунович, Стефани фон Пфеттен, Колин Каннингэм, Пол МакДжиллион, Джина Чиарелли, Вина Суд, Крэйг Эриксон, Джон Хэйнсуорт
Описание:
Пара с бедственным финансовым положением находит координаты GPS, которые должны привести их к украденному золоту, и, чтобы пересечь труднопроходимую снежную глушь и вернуть монеты, им приходится связаться с таинственными автостопщиками.

Дата мировой премьеры: 3 октября 2015
Продолжительность: 01:27:59
Качество видео: WEB-DLRip Sample
Перевод: Многоголосый закадровый, любительский
Реклама: присутствуют аудио и видео вставки рекламы.
Видео: Xvid, 720х304, 1831 Кбит/сек
Аудио: AC3, 2 ch, 384 Кбит/сек

МИ

Numb.2015.P.WEB-DLRip.14OOMB.avi
Формат : AVI
Формат/Информация : Audio Video Interleave
Размер файла : 1,37 Гбайт
Продолжительность : 1 ч. 27 м.
Общий поток : 2224 Кбит/сек
Программа кодирования : VirtualDubMod 1.5.10.2 (build 2540/release)
Библиотека кодирования : VirtualDubMod build 2540/release
Видео
Идентификатор : 0
Формат : MPEG-4 Visual
Профиль формата : Advanced [email protected]
Параметр BVOP формата : 2
Параметр QPel формата : Нет
Параметр GMC формата : Без точки перехода
Параметр матрицы формата : Выборочная
Идентификатор кодека : XVID
Идентификатор кодека/Подсказка : XviD
Продолжительность : 1 ч. 27 м.
Битрейт : 1831 Кбит/сек
Ширина : 720 пикселей
Высота : 304 пикселя
Соотношение сторон : 2,35:1
Частота кадров : 23,976 (24000/1001) кадра/сек
Цветовое пространство : YUV
Субдискретизация насыщенности : 4:2:0
Битовая глубина : 8 бит
Тип развёртки : Прогрессивная
Метод сжатия : С потерями
Бит/(Пиксели*Кадры) : 0.349
Размер потока : 1,13 Гбайт (82%)
Библиотека кодирования : XviD 1.2.1 (UTC 2008-12-04)
Аудио
Идентификатор : 1
Формат : AC-3
Формат/Информация : Audio Coding 3
Расширение режима : CM (complete main)
Параметр Endianness формата : Big
Идентификатор кодека : 2000
Продолжительность : 1 ч. 27 м.
Вид битрейта : Постоянный
Битрейт : 384 Кбит/сек
Каналы : 2 канала
Расположение каналов : Front: L R
Частота : 48,0 КГц
Частота кадров : 31,250 кадров/сек (1536 spf)
Метод сжатия : С потерями
Размер потока : 242 Мбайт (17%)
Выравнивание : Разделение по промежуткам
Продолжительность промежутка : 42 мс. (1,00 видеокадр)
Время предзагрузки промежутка : 500 мс.
Скриншоты:
Яндекс.Метрика
Рейтинг@Mail.ru