[ Сегодня на трекере фрилич! Идет свободное скачивание без начисления Download ]

Отряд самоубийц / Suicide Squad (Дэвид Эйр / David Ayer) [2016, Фантастика, Фэнтези, Боевик, Приключения, WEBRip] DUB (звук с TS)

 

Создавать темы 08-Окт-2016 07:00

- Отряд самоубийц / Suicide Squad - Производство: США
Жанр: Фантастика, Фэнтези, Боевик, Приключения
Режиссер: Дэвид Эйр
Продюсер: Брюс Франклин, Энди Хорвитц, Джефф Джонс
Актеры: Марго Робби, Уилл Смит, Джаред Лето, Джай Кортни, Кара Делевинь, Джей Эрнандес, Юэль Киннаман, Виола Дэвис, Адевале Акинойе-Агбаже, Скотт Иствуд.
Описание:
Правительство решает дать команде суперзлодеев шанс на искупление. Подвох в том, что их отправляют на миссию, где они, вероятнее всего, погибнут.

Возраст: 16+ (зрителям, достигшим 16 лет)
Рейтинг MPAA: PG-13 (детям до 13 лет просмотр нежелателен)
Дата мировой премьеры: 1 августа 2016
Дата российской премьеры: 4 августа 2016, «Каро-Премьер»
Релиз от: KOSHARA
Продолжительность: 02:02:43
Качество видео: WEBRip SAMPLE
Перевод: Дублированный (звук с TS)
Язык субтитров: Корейские
Вид субтитров: Вшитые неотключаемые
Реклама: Присутствуют голосовые и текстовые вставки рекламы, а также рекламный ролик.
Видео: Xvid, 720x304, ~1996 Кбит/с
Аудио: AC3, 2 ch, 384 Кбит/с, CBR

Mediainfo:

Общее
Полное имя                               : D:\Фильмы\Мои раздачи\Отряд самоубийц\Otriyd.SamouUbiyTs.2O16.Dt.HDTVRip.21OOMB_KOSHARA.avi
Формат                                   : AVI
Формат/Информация                        : Audio Video Interleave
Профиль формата                          : OpenDML
Размер файла                             : 2,05 Гбайт
Продолжительность                        : 2 ч. 2 м.
Общий поток                              : 2395 Кбит/сек
Программа кодирования                    : VirtualDubMod 1.5.10.2 (build 2540/release)
Библиотека кодирования                   : VirtualDubMod build 2540/release
Видео
Идентификатор                            : 0
Формат                                   : MPEG-4 Visual
Профиль формата                          : Advanced [email protected]
Параметр BVOP формата                    : 2
Параметр QPel формата                    : Нет
Параметр GMC формата                     : Без точки перехода
Параметр матрицы формата                 : Выборочная
Идентификатор кодека                     : XVID
Идентификатор кодека/Подсказка           : XviD
Продолжительность                        : 2 ч. 2 м.
Битрейт                                  : 1996 Кбит/сек
Ширина                                   : 720 пикселей
Высота                                   : 304 пикселя
Соотношение сторон                       : 2,35:1
Частота кадров                           : 29,970 кадров/сек
Цветовое пространство                    : YUV
Субдискретизация насыщенности            : 4:2:0
Битовая глубина                          : 8 бит
Тип развёртки                            : Прогрессивная
Метод сжатия                             : С потерями
Бит/(Пиксели*Кадры)                      : 0.304
Размер потока                            : 1,71 Гбайт (83%)
Библиотека кодирования                   : XviD 1.2.1 (UTC 2008-12-04)
Аудио
Идентификатор                            : 1
Формат                                   : AC-3
Формат/Информация                        : Audio Coding 3
Расширение режима                        : CM (complete main)
Параметр Endianness формата              : Big
Идентификатор кодека                     : 2000
Продолжительность                        : 2 ч. 2 м.
Вид битрейта                             : Постоянный
Битрейт                                  : 384 Кбит/сек
Каналы                                   : 2 канала
Расположение каналов                     : Front: L R
Частота                                  : 48,0 КГц
Битовая глубина                          : 16 бит
Метод сжатия                             : С потерями
Размер потока                            : 337 Мбайт (16%)
Выравнивание                             : Разделение по промежуткам
Продолжительность промежутка             : 33  мс. (1,00 видеокадр)
Время предзагрузки промежутка            : 500  мс.
Скриншоты:

Свои скриншоты:

Яндекс.Метрика
Рейтинг@Mail.ru