Ольга / Сезон: 1 / Серии: 20 из 20 (Алексей Нужный, Игорь Волошин) [2016 г., комедия, WEB-DL, 720p]

 

Создавать темы 07-Окт-2016 03:13

-Ольга-- Производство: Россия, Good Story Media
Жанр: комедия
Год выпуска: 2016 г.
Продолжительность: 00:22:00Российская премьера: 5 сентября 2016
Режиссер: Алексей Нужный, Игорь Волошин-В ролях: Яна Троянова, Ксения Суркова, Сергей Романович, Мухаммед Абу-Ризик, Алина Алексеева, Василий Кортуков, Максим Костромыкин, Филипп Ершов, Александр Шам, Светлана Костюкова и др.-Описание: Главная героиня воспитывает двух детей от разных браков, заботится об отце-алкоголике и пытается наладить личную жизнь. Старшая дочь Анька учится в ПТУ, думает, что она единственный адекватный член семьи и в её жизни все будет по-другому, младший сын Тимофей, чей отец вернулся к первой семье в Азербайджан, считает, что он уже мужчина, хотя ему всего лишь 11 лет, отец Ольги, бывший футболист, крепко выпивает и постоянно врет, а сестра Ленка пытается жить за счет мужчин, в основном — женатых. Вечно спасая родственников от неприятностей, Ольга живет чужой жизнью и редко думает о себе — до тех пор, пока в нее не влюбляется молодой и положительный водитель газели «Ритуал» Гриша.-
Качество видео: WEB-DL
Контейнер: MKV
Стандарт разрешения: 720p
Видео кодек: MPEG4 AVC
Аудио кодек: AC3
Видео: 1280x720 (16:9), ~ 3503 kbps, 25,000 кадров/сек
Аудио: AC3, 48 kHz, 2 ch, 192 kbps
Cубтитры: отсутствуют

Рецензия

«Шабадинова» или «Ольга» ?Случайно посмотрел 14 серию. Зацепил сериал. На днях также показывали «Страна Оз». Видимо ТНТ форсит этот сериал и Яну Троянову.Только Ольга — это не Шабадинова, а как раз наоборот. Шабадинова это тот же уровень — что и Колян из «Реальных» пацанов. Однажды Коляна позвали на «Камеди-батл» — так он там таким же «Коляном» и остался — 2-х слов связать не мог. «Ольга» же раскрывается совсем с другой стороны.Пересмотрел сериал с начала: в меру пошлые шутки, секс, драгс (фильм с плашкой +18). Сюжет развивается стремительно и не всегда предсказуемо. Ольга как из пулемета решает одну проблему за другой — по мере их поступления, а поступают они с завидной регулярностью.Из минусов: не совсем верится в «кругом положительного» Гришу; и пацан-«азер», непонятно, зачем он вписан в сюжет, да и играет не ахти как.В общем сериал интересен и правдив, тем и цепляет: правдой жизни, и веселым бесшабашным цинизмом «Неправильных копов», но не арт-хаусной чернухой «Страны Оз»,Также название напомнило песню группы «Ногу Свело» — «Ольга» (1989), с которой коррелирует…Смотреть буду пока сценаристы не скатятся в УГ.9 из 10

Media Info

Общее
Уникальный идентификатор : 237929192512293156585031171885348420023 (0xB2FF7EE2F0A5E61EBCE73A5A932FF9B7)
Полное имя : F:\Ольга\Ol'ga.s01.2016.WEB-DL.720p.[pirat.ca]\Ol'ga.s01.e01.2016.WEB-DL.720p.mkv
Формат : Matroska
Версия формата : Version 4 / Version 2
Размер файла : 586 Мбайт
Продолжительность : 21 м.
Общий поток : 3770 Кбит/сек
Дата кодирования : UTC 2016-09-06 07:57:09
Программа кодирования : mkvmerge v7.9.0 ('Birds') 64bit
Библиотека кодирования : libebml v1.3.1 + libmatroska v1.4.2Видео
Идентификатор : 1
Формат : AVC
Формат/Информация : Advanced Video Codec
Профиль формата : [email protected]/* */
Параметр CABAC формата : Да
Параметр ReFrames формата : 1 кадр
Параметр GOP формата : M=1, N=12
Идентификатор кодека : V_MPEG4/ISO/AVC
Продолжительность : 21 м.
Битрейт : 3503 Кбит/сек
Ширина : 1280 пикселей
Высота : 720 пикселей
Соотношение сторон : 16:9
Режим частоты кадров : Постоянный
Частота кадров : 25,000 кадров/сек
Стандарт вещания : Component
Цветовое пространство : YUV
Субдискретизация насыщенности : 4:2:0
Битовая глубина : 8 бит
Тип развёртки : Прогрессивная
Бит/(Пиксели*Кадры) : 0.152
Размер потока : 545 Мбайт (93%)
Язык : Russian
Default : Да
Forced : Нет
Цветовой диапазон : LimitedАудио
Идентификатор : 2
Формат : AC-3
Формат/Информация : Audio Coding 3
Расширение режима : CM (complete main)
Параметр Endianness формата : Big
Идентификатор кодека : A_AC3
Продолжительность : 21 м.
Вид битрейта : Постоянный
Битрейт : 192 Кбит/сек
Каналы : 2 канала
Расположение каналов : Front: L R
Частота : 48,0 КГц
Частота кадров : 31,250 кадров/сек (1536 spf)
Метод сжатия : С потерями
Размер потока : 29,9 Мбайт (5%)
Язык : Russian
Default : Да
Forced : Нет

Скриншот c названием фильма

Скриншоты

Трейлер
Яндекс.Метрика
Рейтинг@Mail.ru