Клянусь тобой, любимая / Sanam Teri Kasam (Радхика Рао / Radhika Rao, ...) [2016 г., мелодрама, WEB-DL, 720p] MVO Sub (Rus)

 

Создавать темы 07-Окт-2016 03:09

-Клянусь тобой, любимая / Sanam Teri Kasam-- Производство: Индия
Год выпуска: 2016 г.
Жанр: мелодрама
Продолжительность: 02:34:05Мировая премьера: 5 февраля 2016
Перевод: Любительский (многоголосый, закадровый)
Режиссер: Радхика Рао / Radhika Rao, ...-В ролях: Мавра Хокин, Харшвардхан Ране, Виджай Рааз, Мурли Шарма, Анураг Синха, Дивьетта Кавери-Описание: Сарасвати – простая девушка, работающая в библиотеке. О таких, как она, говорят лишь одно: книжный червь, невзрачная простушка, которой далеко до идеала красоты. Именно эта простота мешает Сарасвати выйти замуж и наконец, уехать из отчего дома. Родители цепляются за любую возможность о предложениях на замужество, но отказы со стороны потенциальных женихов следуют один за другим. Младшая сестра Кавери тихонько ненавидит Сарасвати за то, что по её вине она не может первой выйти замуж за своего возлюбленного и переехать в США. Устав от упрёков со стороны своих родителей, сестры и коллег, Сарасвати наконец, решает взять свою судьбу в свои руки. Она просит помощи у своего соседа Индера, который с момента своего заселения в дом, старался всячески избегать её. После долгих уговоров девушки, Индер всё-таки соглашается помочь Сарасвати с преображением и найти своё женское счастье в лице её коллеги Абхиманью, в которого она тайно и давно влюблена.-
Качество видео: WEB-DL
Контейнер: MKV
Стандарт разрешения: 720p
Видео кодек: MPEG4 AVC
Аудио кодек: AC3
Видео: 2336 Кбит/с, 1280x544, 23,976 (24000/1001) кадра/сек
Аудио: АС3, 6 ch, 448 Кбит/с, 48,0 КГц
Cубтитры: русские
Формат субтитров: softsub (SSA/ASS)
Доп. информация о субтитрах: включаемые - на песни

Рецензия

Один из лучших за последние годы!Как описать этот фильм? Если честно я испытала катарсис. И это даже не громко сказано! Я вообще не любитель душещипательных фильмов, а тем более индийского производства, потому что, уж кто-кто, а эти товарищи еще как умеют эту самую слезу выдавить. Я люблю «хэппи энды». А еще, я теперь люблю этот фильм.Про сюжет: сценарий просто отличный, история захватывает с первой минуты, событий в фильме настолько достаточно, что нет «провисаний» в сюжете, нет желания перемотать. Сама история настолько не избита, что вроде бы ты понимаешь, что герои по любому, не просто так оба главные, но они такие разные и как это все? Постоянно события, события и всё как-то не самыми избитыми путями… Интересно! А еще нет в этом фильме мрачности, безысходности, черноты и грязи, и отрицательных героев в итоге тоже нет. Странно правда?Главный герой: ох и ах девочки, в такого «плохиша» не влюбиться нельзя, уж таких-то мы с вами любим. То есть между тем как ты утираешь глаза салфеткой, еще и слюнки не забывай, уж больно хорош, горяч и много сцен топлесс, и татуировки, всё есть у парня, держите меня семеро! А больше всего, при всём при этом, удивляет на сколько хорошо играет, сколько чисто душевных эмоций может показать…Главная героиня: С начала фильма прямо не верится, что это она и есть, но сюжет развивается и ты уже сама, на перешибку с главным героем, хочешь оградить это маленькое гордое существо от всех бед и страданий. Она очень милая. Вообще сложно описывать, не типичную главную героиню, нам закормленным Голливудом, где любая дурнушка, в момент апогея, превращается в секс бомбу. Здесь наверное ближе образ Нелли Уваровой из «Не родись красивой».А вообще актеры настолько замечательно сыграли, что и сам тов. Станиславский проникся бы. Однозначно смотреть и запастись платками.10 из 10

Media Info

Общее
Уникальный идентификатор : 202410087292098392849832081970473271040 (0x9846C3CAFE65C055AEAD0A9FCBB4FF00)
Полное имя : J:\Клянусь тобой, любимая\Kljanusj Toboj, Ljubimaja.2016.720p.[pirat.ca].mkv
Формат : Matroska
Версия формата : Version 2
Размер файла : 3,00 Гбайт
Продолжительность : 2 ч. 34 м.
Общий поток : 2785 Кбит/сек
Дата кодирования : UTC 2016-10-06 00:40:07
Программа кодирования : mkvmerge v5.3.0 ('I could have danced') built on Feb 9 2012 10:38:07
Библиотека кодирования : libebml v1.2.3 + libmatroska v1.3.0Видео
Идентификатор : 1
Формат : AVC
Формат/Информация : Advanced Video Codec
Профиль формата : [email protected]/* */
Параметр CABAC формата : Да
Параметр ReFrames формата : 12 кадров
Идентификатор кодека : V_MPEG4/ISO/AVC
Продолжительность : 2 ч. 34 м.
Битрейт : 2336 Кбит/сек
Ширина : 1280 пикселей
Высота : 544 пикселя
Соотношение сторон : 2,35:1
Режим частоты кадров : Постоянный
Частота кадров : 23,976 (24000/1001) кадра/сек
Цветовое пространство : YUV
Субдискретизация насыщенности : 4:2:0
Битовая глубина : 8 бит
Тип развёртки : Прогрессивная
Бит/(Пиксели*Кадры) : 0.140
Размер потока : 2,46 Гбайт (82%)
Библиотека кодирования : x264 core 148 r2638 7599210
Настройки программы : cabac=1 / ref=12 / deblock=1:0:0 / analyse=0x3:0x133 / me=umh / subme=9 / psy=1 / psy_rd=1.00:0.00 / mixed_ref=1 / me_range=16 / chroma_me=1 / trellis=2 / 8x8dct=1 / cqm=0 / deadzone=21,11 / fast_pskip=1 / chroma_qp_offset=-2 / threads=12 / lookahead_threads=1 / sliced_threads=0 / nr=0 / decimate=1 / interlaced=0 / bluray_compat=0 / constrained_intra=0 / bframes=3 / b_pyramid=2 / b_adapt=2 / b_bias=0 / direct=3 / weightb=1 / open_gop=0 / weightp=2 / keyint=230 / keyint_min=23 / scenecut=40 / intra_refresh=0 / rc_lookahead=60 / rc=2pass / mbtree=1 / bitrate=2336 / ratetol=1.0 / qcomp=0.60 / qpmin=0 / qpmax=69 / qpstep=4 / cplxblur=20.0 / qblur=0.5 / vbv_maxrate=62500 / vbv_bufsize=78125 / nal_hrd=none / filler=0 / ip_ratio=1.40 / aq=1:1.00
Язык : English
Default : Да
Forced : Нет
Цветовой диапазон : Limited
Основные цвета : BT.709
Характеристики трансфера : BT.709
Коэффициенты матрицы : BT.709
Statistics Tags Issue : mkvmerge v8.3.0 ('Over the Horizon') 32bit 2016-03-24 14:56:51 / mkvmerge v5.3.0 ('I could have danced') built on Feb 9 2012 10:38:07 2016-10-06 00:40:07
FromStats_BitRate : 2335518
FromStats_Duration : 02:34:02.317000000
FromStats_FrameCount : 221594
FromStats_StreamSize : 2698200420Аудио
Идентификатор : 2
Формат : AC-3
Формат/Информация : Audio Coding 3
Расширение режима : CM (complete main)
Параметр Endianness формата : Big
Идентификатор кодека : A_AC3
Продолжительность : 2 ч. 34 м.
Вид битрейта : Постоянный
Битрейт : 448 Кбит/сек
Каналы : 6 каналов
Расположение каналов : Front: L C R, Side: L R, LFE
Частота : 48,0 КГц
Частота кадров : 31,250 кадров/сек (1536 spf)
Метод сжатия : С потерями
Размер потока : 494 Мбайт (16%)
Язык : Russian
Default : Да
Forced : Нет
Statistics Tags Issue : mkvmerge v8.3.0 ('Over the Horizon') 32bit 2016-03-24 14:56:51 / mkvmerge v5.3.0 ('I could have danced') built on Feb 9 2012 10:38:07 2016-10-06 00:40:07
FromStats_BitRate : 448000
FromStats_Duration : 02:34:05.024000000
FromStats_FrameCount : 288907
FromStats_StreamSize : 517721344Текст
Идентификатор : 3
Формат : UTF-8
Идентификатор кодека : S_TEXT/UTF8
Идентификатор кодека/Информация : UTF-8 Plain Text
Заголовок : на песни
Язык : Russian
Default : Да
Forced : Нет
Statistics Tags Issue : mkvmerge v8.3.0 ('Over the Horizon') 32bit 2016-03-24 14:56:51 / mkvmerge v5.3.0 ('I could have danced') built on Feb 9 2012 10:38:07 2016-10-06 00:40:07
FromStats_BitRate : 12
FromStats_Duration : 02:18:07.310000000
FromStats_FrameCount : 204
FromStats_StreamSize : 12438

Скриншот c названием фильма

Скриншоты

Трейлер
Яндекс.Метрика
Рейтинг@Mail.ru