Мэри Ком / Mary Kom (Омунг Кумар / Omung Kumar) [2014 г., драма, биография, спорт, BDRip, 720p] MVO + Sub (Rus)

 

Создавать темы 07-Окт-2016 02:53

-Мэри Ком / Mary Kom-- Производство: Индия, SLB Films Pvt. Ltd., Viacom18 Motion Pictures
Год выпуска: 2014 г.
Жанр: драма, биография, спорт
Продолжительность: 02:01:07Мировая премьера: 4 сентября 2014
Перевод: Любительский (многоголосый, закадровый) [ICG]
Режиссер: Омунг Кумар / Omung Kumar-В ролях: Приянка Чопра, Захари Соффин, Даршан Кумар, Сунил Дхапа, Лин Лайшрам-Описание: Между первым и последним ударом боксерского гонга — или нокаут, или пояс чемпиона. Помни, ради чего ты выходишь на ринг. Отныне твой мир имеет форму квадрата, и в этом мире есть свои правила и условия. Условие первое — стремление. Нет воли — нет результата. Второе — верность. Всегда будь предана боксу. Отдай ему все: свое время, свое счастье, всю себя. И, самое главное, не жди пощады. На ринге тебя никто не будет жалеть, и ты никого не жалей…
Реальная история пятикратной чемпионки мира по боксу, живой легенды, известной миру как Мэри Ком.-
Качество видео: BDRip
Контейнер: MKV
Стандарт разрешения: 720p
Видео кодек: MPEG4 AVC
Аудио кодек: AC3
Видео: 4785 Кбит/с, 1280x544, 24,000 кадра/сек
Аудио: AC3, 6 ch, 640 Кбит/с, 48,0 kHz
Cубтитры: русские
Формат субтитров: softsub (SSA/ASS)
Доп. информация о субтитрах: включаемые: полные, на песни и надписи

Рецензия

Мэри Ком — героиня нашего времени
Вообще я люблю бокс, особенно женский, который не такой жестокий, как мужской. Но, к моему стыду, о Мэри Ком я почти ничего не знала. А ведь Мэри — героиня нашего времени: будучи домохозяйкой и матерью двух (а теперь уже трех) детей, она смогла стать пятикратной чемпионкой мира по боксу, и это еще совсем не ее предел.
Очень правильно, что индийцы снимают художественные биографические фильмы о своих выдающихся спортсменах, и что бы ни говорили те, кто не любит индийское кино, делают это индийцы очень хорошо: как на одном дыхании я смотрела «Беги, Милка, беги», так на одном дыхании я смотрела и «Мэри Ком». Оба фильма очень сильные и мотивирующие.
Кроме раскрытия истории непростого пути Мэри Ком от победы к победе, фильм также интересен тем, что дает заглянуть в жизнь и культуру народа манипури, о котором мало знают даже сами индийцы. Для меня это было открытие: насколько разными культурно и антропологически бывают индийцы. Приянке пришлось изменить свои черты лица, чтобы стать похожей на манипури, однако, если честно, в фильме это мало заметно.
Что же касается актеров.
Приянка Чопра — Мэри Ком — меня очень удивила: она очень хорошо поработала над собой как физически (очень непросто стать боксером, пусть даже на экране), так и в плане актерского мастерства. Она очень хорошо сыграла как бойкую и бесстрашную девушку, мечтающую стать великим боксером, так и любящую жену и заботливую мать. Честно говоря, не питала к Приянке особой любви до просмотра этого фильма. Теперь же я ее очень уважаю, даже не представляю, кто бы мог справиться с этой ролью лучше.
Даршан Кумар — Онлер — тоже сыграл очень хорошо. Не видела его раньше, но надеюсь, что это будет не последний фильм с его участием, просмотренный мною. И если Приянке пришлось пройти через тяжелые физические тренировки ради своей роли, то Даршану ради роли пришлось сильно похудеть, а это тоже непросто. Но больше, чем сам Даршан, меня удивил его герой Онлер. Вот смотришь на него и думаешь: «Ну кто сказал, что идеальных мужчин не бывает? Вот же он!». Добрый, любящий, понимающий и поддерживающий. Даршан как-то говорил в интервью, что после выхода фильма к нему стали подходить женщины на улице и говорить, что его герой — идеал, который бы они хотели видеть в своем муже. И я с ними полностью согласна.
Еще хотелось бы отметить актерскую игру Сунила Тхапу (тренер Сингх), а также Робина Даса (отец Мэри Тонпа Ком), которые поддерживали боевой дух фильма.
Мне также понравился музыкальный альбом фильма, где одну из песен исполняет сама Приянка, да еще и частично на манипури. Мне особенно понравилась песня «Ziddi Dil», что значит «упрямое сердце» — очень мотивирующая песня.
В общем, Мэри Ком — это образец для подражания не только для спортсменов, но и для каждой простой девушки и женщины. Нам всем стоит поучится у нее смелости, стойкости и силе духа. А фильм — прекрасное тому подтверждение. Поэтому, смотреть обязательно!
10 из 10

Media Info

Общее
Уникальный идентификатор : 224055226374227742137146506498307912243 (0xA88F778B2734FC53BFC2C62D5831F233)
Полное имя : J:\Мэри Ком\Mary Kom.2014.BDRip.720p.Rus.ICG.[pirat.ca].mkv
Формат : Matroska
Версия формата : Version 2
Размер файла : 4,51 Гбайт
Продолжительность : 2 ч. 1 м.
Общий поток : 5325 Кбит/сек
Дата кодирования : UTC 2016-10-06 15:57:42
Программа кодирования : mkvmerge v5.3.0 ('I could have danced') built on Feb 9 2012 10:38:07
Библиотека кодирования : libebml v1.2.3 + libmatroska v1.3.0Видео
Идентификатор : 1
Формат : AVC
Формат/Информация : Advanced Video Codec
Профиль формата : [email protected]/* */
Параметр CABAC формата : Да
Параметр ReFrames формата : 3 кадра
Идентификатор кодека : V_MPEG4/ISO/AVC
Продолжительность : 2 ч. 1 м.
Битрейт : 4785 Кбит/сек
Ширина : 1280 пикселей
Высота : 544 пикселя
Соотношение сторон : 2,35:1
Режим частоты кадров : Постоянный
Частота кадров : 24,000 кадра/сек
Цветовое пространство : YUV
Субдискретизация насыщенности : 4:2:0
Битовая глубина : 8 бит
Тип развёртки : Прогрессивная
Бит/(Пиксели*Кадры) : 0.286
Размер потока : 3,87 Гбайт (86%)
Библиотека кодирования : x264 core 142 r2431 ac76440
Настройки программы : cabac=1 / ref=3 / deblock=1:-1:-1 / analyse=0x3:0x113 / me=hex / subme=9 / psy=1 / psy_rd=1.00:0.15 / mixed_ref=1 / me_range=16 / chroma_me=1 / trellis=2 / 8x8dct=1 / cqm=1 / deadzone=21,11 / fast_pskip=1 / chroma_qp_offset=-3 / threads=48 / lookahead_threads=4 / sliced_threads=0 / nr=0 / decimate=1 / interlaced=0 / bluray_compat=0 / constrained_intra=0 / bframes=3 / b_pyramid=0 / b_adapt=2 / b_bias=0 / direct=2 / weightb=1 / open_gop=0 / weightp=2 / keyint=240 / keyint_min=24 / scenecut=50 / intra_refresh=0 / rc_lookahead=50 / rc=abr / mbtree=1 / bitrate=4785 / ratetol=1.0 / qcomp=0.60 / qpmin=4 / qpmax=69 / qpstep=4 / vbv_maxrate=24000 / vbv_bufsize=24000 / nal_hrd=none / filler=0 / ip_ratio=1.40 / aq=1:1.00
Default : Да
Forced : Нет
Цветовой диапазон : Limited
Основные цвета : BT.709
Характеристики трансфера : BT.709
Коэффициенты матрицы : BT.709Аудио
Идентификатор : 2
Формат : AC-3
Формат/Информация : Audio Coding 3
Расширение режима : CM (complete main)
Параметр Endianness формата : Big
Идентификатор кодека : A_AC3
Продолжительность : 2 ч. 1 м.
Вид битрейта : Постоянный
Битрейт : 640 Кбит/сек
Каналы : 6 каналов
Расположение каналов : Front: L C R, Side: L R, LFE
Частота : 48,0 КГц
Частота кадров : 31,250 кадров/сек (1536 spf)
Метод сжатия : С потерями
Размер потока : 554 Мбайт (12%)
Заголовок : ICG
Язык : Russian
Default : Да
Forced : ДаТекст #1
Идентификатор : 3
Формат : UTF-8
Идентификатор кодека : S_TEXT/UTF8
Идентификатор кодека/Информация : UTF-8 Plain Text
Заголовок : На песни
Язык : Russian
Default : Да
Forced : ДаТекст #2
Идентификатор : 4
Формат : UTF-8
Идентификатор кодека : S_TEXT/UTF8
Идентификатор кодека/Информация : UTF-8 Plain Text
Заголовок : Полные
Язык : Russian
Default : Нет
Forced : НетМеню
00:00:00.000 : en:00:00:00.000
00:05:08.875 : en:00:05:08.875
00:12:47.958 : en:00:12:47.958
00:16:29.583 : en:00:16:29.583
00:29:08.333 : en:00:29:08.333
00:33:09.250 : en:00:33:09.250
00:35:59.667 : en:00:35:59.667
00:38:59.875 : en:00:38:59.875
00:40:04.417 : en:00:40:04.417
00:56:55.083 : en:00:56:55.083
00:59:46.583 : en:00:59:46.583
01:02:08.542 : en:01:02:08.542
01:05:11.667 : en:01:05:11.667
01:12:27.875 : en:01:12:27.875
01:13:59.250 : en:01:13:59.250
01:21:18.917 : en:01:21:18.917
01:23:07.375 : en:01:23:07.375
01:33:35.875 : en:01:33:35.875
01:36:46.292 : en:01:36:46.292
01:57:08.875 : en:01:57:08.875

Скриншот c названием фильма

Скриншоты

Трейлер

Яндекс.Метрика
Рейтинг@Mail.ru