Ледниковый период: Столкновение неизбежно / Ice Age: Collision Course (Майк Тёрмайер, Гален Т. Чу / Mike Thurmeier, Galen T. Chu) [2016 г., мультфильм, фантастика, комедия, BDRip 1080p] Dub [iTunes] + Original (Eng) + Sub (Rus, Eng)

 

Создавать темы 06-Окт-2016 07:40

--Ледниковый период: Столкновение неизбежно / Ice Age: Collision Course--«Маленький шаг для него. Большая проблема для всех»-- Производство: США, 20th Century Fox Animation, Blue Sky Studios
Год выпуска: 2016 г.
Жанр: мультфильм, фантастика, комедия, приключения, семейный
Продолжительность: 01:35:05--Мировая премьера: 19 июня 2016
Российская премьера: 14 июля 2016, «Двадцатый Век Фокс СНГ»--Перевод: Профессиональный (полное дублирование) [iTunes]
Оригинальный аудиопоток: английский--Режиссер: Майк Тёрмайер, Гален Т. Чу / Mike Thurmeier, Galen T. Chu--В ролях: Ник Офферман, Адам Дивайн, Саймон Пегг, Дженнифер Лопез, Мелисса Рауш, Стефани Беатриз, Джон Легуизамо, Макс Гринфилд, Шонн Уильям Скотт, Дэнис Лири--Описание: Отчаянная погоня за неуловимым желудем катапультирует Скрата прямо в космос, где он случайно запускает целую серию космических событий. Именно они изменят весь мир Ледникового периода и станут реальной угрозой для него. Чтобы спастись, Сид, Мэнни, Диего и остальные звери должны покинуть свои дома, отправиться в забавное и захватывающее приключение в экзотические новые земли и встретиться со множеством красочных новых персонажей.-- --Качество видео: BDRip 1080p
Контейнер: MKV
Видео кодек: AVC/H.264
Аудио кодек: AC3
Видео: AVC, 1920x800 (2.40:1), 9854 kbps, 23,976 fps, 0.268 bpp
Аудио 1: 48 kHz, AC3 Dolby Digital, 3/2 (L,C,R,l,r) + LFE ch, ~384 kbps RUS
Аудио 2: 48 kHz, AC3 Dolby Digital, 3/2 (L,C,R,l,r) + LFE ch, ~384 kbps ENG
Cубтитры: русские, английские.

Media Info

Общее
Уникальный идентификатор : 177598098520715938255519696732119185220 (0x859C264C3BBAC499BCD497E282C13744)
Полное имя : H:\Torrent2\Ice.Age.Collision.Course.2016.D.BDRip.1080p.mkv
Формат : Matroska
Версия формата : Version 4 / Version 2
Размер файла : 7,02 Гбайт
Продолжительность : 1 ч. 34 м.
Общий поток : 10,6 Мбит/сек
Дата кодирования : UTC 2016-10-05 07:54:46
Программа кодирования : mkvmerge v9.0.1 ('Obstacles') 64bit
Библиотека кодирования : libebml v1.3.3 + libmatroska v1.4.4Видео
Идентификатор : 1
Формат : AVC
Формат/Информация : Advanced Video Codec
Профиль формата : [email protected]/* */
Параметр CABAC формата : Да
Параметр ReFrames формата : 5 кадров
Идентификатор кодека : V_MPEG4/ISO/AVC
Продолжительность : 1 ч. 34 м.
Битрейт : 9854 Кбит/сек
Ширина : 1920 пикселей
Высота : 800 пикселей
Соотношение сторон : 2,40:1
Режим частоты кадров : Постоянный
Частота кадров : 23,976 (24000/1001) кадра/сек
Цветовое пространство : YUV
Субдискретизация насыщенности : 4:2:0
Битовая глубина : 8 бит
Тип развёртки : Прогрессивная
Бит/(Пиксели*Кадры) : 0.268
Размер потока : 6,51 Гбайт (93%)
Библиотека кодирования : x264 core 148 r2699+6+41 29a38aa Yuuki [[email protected]/* */:2:0 X86_64][GCC 5.3.0]
Настройки программы : cabac=1 / ref=5 / deblock=1:-3:-3 / analyse=0x3:0x113 / me=umh / subme=11 / psy=1 / fade_compensate=0.00 / psy_rd=1.00:0.05 / mixed_ref=1 / me_range=32 / chroma_me=1 / trellis=2 / 8x8dct=1 / cqm=0 / deadzone=21,11 / fast_pskip=0 / chroma_qp_offset=-2 / threads=24 / lookahead_threads=4 / sliced_threads=0 / nr=0 / decimate=1 / interlaced=0 / bluray_compat=0 / constrained_intra=0 / fgo=0 / bframes=8 / b_pyramid=2 / b_adapt=2 / b_bias=0 / direct=3 / weightb=1 / open_gop=0 / weightp=2 / keyint=250 / keyint_min=23 / scenecut=40 / intra_refresh=0 / rc_lookahead=40 / rc=crf / mbtree=0 / crf=17.1000 / qcomp=0.60 / qpmin=0:0:0 / qpmax=69:69:69 / qpstep=4 / vbv_maxrate=50000 / vbv_bufsize=40000 / crf_max=0.0 / nal_hrd=none / filler=0 / ip_ratio=1.40 / pb_ratio=1.30 / aq=3:0.90
Язык : English
Default : Да
Forced : НетАудио #1
Идентификатор : 2
Формат : AC-3
Формат/Информация : Audio Coding 3
Расширение режима : CM (complete main)
Параметр Endianness формата : Big
Идентификатор кодека : A_AC3
Продолжительность : 1 ч. 34 м.
Вид битрейта : Постоянный
Битрейт : 384 Кбит/сек
Каналы : 6 каналов
Расположение каналов : Front: L C R, Side: L R, LFE
Частота : 48,0 КГц
Частота кадров : 31,250 кадров/сек (1536 spf)
Метод сжатия : С потерями
Задержка видео : 2 с. 0 мс.
Размер потока : 260 Мбайт (4%)
Заголовок : Dub [iTunes]
Язык : Russian
Default : Да
Forced : НетАудио #2
Идентификатор : 3
Формат : AC-3
Формат/Информация : Audio Coding 3
Расширение режима : CM (complete main)
Параметр Endianness формата : Big
Идентификатор кодека : A_AC3
Продолжительность : 1 ч. 34 м.
Вид битрейта : Постоянный
Битрейт : 384 Кбит/сек
Каналы : 6 каналов
Расположение каналов : Front: L C R, Side: L R, LFE
Частота : 48,0 КГц
Частота кадров : 31,250 кадров/сек (1536 spf)
Метод сжатия : С потерями
Размер потока : 259 Мбайт (4%)
Заголовок : Original
Язык : English
Default : Нет
Forced : НетТекст #1
Идентификатор : 4
Формат : UTF-8
Идентификатор кодека : S_TEXT/UTF8
Идентификатор кодека/Информация : UTF-8 Plain Text
Продолжительность : 24 м.
Битрейт : 0 бит/сек
Count of elements : 2
Размер потока : 109 байт (0%)
Заголовок : Forced [iTunes]
Язык : Russian
Default : Да
Forced : НетТекст #2
Идентификатор : 5
Формат : UTF-8
Идентификатор кодека : S_TEXT/UTF8
Идентификатор кодека/Информация : UTF-8 Plain Text
Продолжительность : 1 ч. 23 м.
Битрейт : 99 бит/сек
Count of elements : 1221
Размер потока : 61,1 Кбайт (0%)
Заголовок : Full [iTunes]
Язык : Russian
Default : Нет
Forced : НетТекст #3
Идентификатор : 6
Формат : UTF-8
Идентификатор кодека : S_TEXT/UTF8
Идентификатор кодека/Информация : UTF-8 Plain Text
Продолжительность : 1 ч. 23 м.
Битрейт : 60 бит/сек
Count of elements : 1221
Размер потока : 36,9 Кбайт (0%)
Заголовок : Full
Язык : English
Default : Нет
Forced : НетМеню
00:00:00.000 : en:1
00:03:07.103 : en:2
00:05:22.321 : en:3
00:09:04.084 : en:4
00:13:20.298 : en:5
00:18:03.748 : en:6
00:20:48.579 : en:7
00:23:08.302 : en:8
00:27:27.894 : en:9
00:30:13.976 : en:10
00:32:52.342 : en:11
00:36:11.582 : en:12
00:39:31.448 : en:13
00:42:56.694 : en:14
00:47:33.011 : en:15
00:51:09.727 : en:16
00:55:48.756 : en:17
01:01:07.449 : en:18
01:05:04.394 : en:19
01:09:37.291 : en:20
01:14:34.880 : en:21
01:17:39.522 : en:22
01:21:41.055 : en:23
01:24:44.488 : en:24

Скриншоты

Трейлер
Яндекс.Метрика
Рейтинг@Mail.ru