Влюблённые / Dilwale (Рохит Шетти / Rohit Shetty) [2015 г., боевик, драма, мелодрама, комедия, криминал, HDRip] MVO Sub (Rus)

 

Создавать темы 06-Окт-2016 07:38

-Влюблённые / Dilwale-- Производство: Индия, Red Chillies Entertainment, Rohit Shetty Productions
Год выпуска: 2015 г.
Жанр: боевик, драма, мелодрама, комедия, криминал
Продолжительность: 02:33:31Мировая премьера: 17 декабря 2015
Перевод: Любительский (многоголосый, закадровый) [ICG]
Режиссер: Рохит Шетти / Rohit Shetty-В ролях: Шах Рукх Кхан, Крити Санон, Каджол, Варун Дхаван, Кабир Беди, Санджай Мишра, Боман Ирани, Джонни Левер, Мукеш Тивари, Винод Кханна-Описание: Когда Вир встречает Ишу, то сразу влюбляется в нее по уши. Девушка тоже вскоре отвечает ему взаимностью. Но у Вира есть брат Радж, а у Ишиты — сестра Мира. И когда влюбленные решают рассказать о своих чувствах своим родственникам, дело принимает неожиданный оборот!-
Качество видео: HDRip
Контейнер: AVI
Видео кодек: XviD
Аудио кодек: AC3
Видео: 720x304 (2.37:1), 24.000 fps, XviD MPEG-4 ~1575 kbps avg, 0.30 bit/pixel
Аудио: 48 kHz, AC3 Dolby Digital, 2/0 (L,R) ch, ~224 kbps
Cубтитры: русские
Формат субтитров: softsub (SRT)
Доп. информация о субтитрах: внешние (Full и на песни)

Рецензия

Давно не видела такого сочетания.Не соглашусь с выше сказанными разочарованиями я посмотрела фильм спустя 10 месяцев. И скажу я была восторге, мы так давно не видели нашу любимую пару если не обшибаюсь последний с ними фильм был в 2010 году, и тот фильм мне не понравился вообще(Меня зовут Кхан). Этот фильм показал нам как эти двоя могут играть сразу нескольких героев.Посмотрев фильмы с Каджол,ни разу не видела её такой «стервой»,а вот герой Шахрукха как всегда не менялся влюбился с первого взгляда. Наверное он всегда для всех останется Рахулом Кханной из Все в жизни бывает и Рахулом из И в печали и в радости.То что пишут про сюжет, да вы посмотрите ещё 10 индийских фильмов и все равно в каждом сюжет будет запутан до конца.После просмотра у меня было столько эмоций, что я бы не отказалась если бы сняли что-то ещё с нашей любимой парой, пока они не так стары.10 из 10

Media Info

Общее
Полное имя : F:\Влюблённые (2015)\Dilwale.2015.HDRip.[pirat.ca]\Dilwale.2015.HDRip.[pirat.ca].avi
Формат : AVI
Формат/Информация : Audio Video Interleave
Размер файла : 1,94 Гбайт
Продолжительность : 2 ч. 33 м.
Общий поток : 1809 Кбит/сек
Программа кодирования : VirtualDubMod 1.5.10.3 (build 2550/release)
Библиотека кодирования : VirtualDubMod build 2550/releaseВидео
Идентификатор : 0
Формат : MPEG-4 Visual
Профиль формата : Advanced [email protected]/* */
Параметр BVOP формата : 1
Параметр QPel формата : Нет
Параметр GMC формата : Без точки перехода
Параметр матрицы формата : Default (MPEG)
Идентификатор кодека : XVID
Идентификатор кодека/Подсказка : XviD
Продолжительность : 2 ч. 33 м.
Битрейт : 1576 Кбит/сек
Ширина : 720 пикселей
Высота : 304 пикселя
Соотношение сторон : 2,35:1
Частота кадров : 24,000 кадра/сек
Цветовое пространство : YUV
Субдискретизация насыщенности : 4:2:0
Битовая глубина : 8 бит
Тип развёртки : Прогрессивная
Метод сжатия : С потерями
Бит/(Пиксели*Кадры) : 0.300
Размер потока : 1,69 Гбайт (87%)
Библиотека кодирования : XviD 73Аудио
Идентификатор : 1
Формат : AC-3
Формат/Информация : Audio Coding 3
Расширение режима : CM (complete main)
Параметр Endianness формата : Big
Идентификатор кодека : 2000
Продолжительность : 2 ч. 33 м.
Вид битрейта : Постоянный
Битрейт : 224 Кбит/сек
Каналы : 2 канала
Расположение каналов : Front: L R
Частота : 48,0 КГц
Частота кадров : 31,250 кадров/сек (1536 spf)
Метод сжатия : С потерями
Размер потока : 246 Мбайт (12%)
Выравнивание : Разделение по промежуткам
Продолжительность промежутка : 42 мс. (1,00 видеокадр)
Время предзагрузки промежутка : 500 мс.

Скриншот c названием фильма

Скриншоты


Трейлер
Яндекс.Метрика
Рейтинг@Mail.ru