[ Сегодня на трекере фрилич! Идет свободное скачивание без начисления Download ]

Каприз / Caprice (Эмманюэль Муре / Emmanuel Mouret) [2015 г., Лирическая комедия, HDTVRip] MVO

 

Создавать темы 06-Окт-2016 07:30

-Каприз / Caprice-- Производство: Франция
Год выпуска: 2015 г.
Жанр: Лирическая комедия
Продолжительность: 01:39:03Мировая премьера: 16 января 2015
Перевод: Профессиональный (многоголосый, закадровый) [1 канал]
Режиссер: Эмманюэль Муре / Emmanuel Mouret-В ролях: Виржини Эфира, Анаис Демустье, Лоран Стокер, Эмманюэль Муре, Томас Бланчард, Матильда Варнье, Оливье Крувелье, Ботум Дюпуа, Néo Rouleau-Описание: Клеман работает учителем, он счастлив до умопомрачения: Алисья, знаменитая актриса, которую он боготворит, становится его спутницей. Но все усложняется в момент, когда он знакомится с Каприс, женщиной, которая с трудом сдерживает свои эмоции и имеет склонность к крайностям. Она в него влюблена. Между тем, его лучший друг Тома сближается с Алисьей….-
Качество видео: HDTVRip
Контейнер: AVI
Видео кодек: XviD
Аудио кодек: AC3
Видео: 720x384 (1.88:1), 25 fps, XviD build 50 ~1694 kbps avg, 0.25 bit/pixel
Аудио: 48 kHz, AC3 Dolby Digital, 3/2 (L,C,R,l,r) + LFE ch, ~384 kbps
Cубтитры: отсутствуют

Media Info

Общее
Полное имя : J:\Каприз\Kapriz.2015.HDTVRip.[pirat.ca].avi
Формат : AVI
Формат/Информация : Audio Video Interleave
Размер файла : 1,37 Гбайт
Продолжительность : 1 ч. 33 м.
Общий поток : 2089 Кбит/сек
Программа кодирования : VirtualDubMod 1.5.10.2 (build 2540/release)
Библиотека кодирования : VirtualDubMod build 2540/releaseВидео
Идентификатор : 0
Формат : MPEG-4 Visual
Профиль формата : Advanced [email protected]/* */
Параметр BVOP формата : 2
Параметр QPel формата : Нет
Параметр GMC формата : Без точки перехода
Параметр матрицы формата : Default (MPEG)
Идентификатор кодека : XVID
Идентификатор кодека/Подсказка : XviD
Продолжительность : 1 ч. 33 м.
Битрейт : 1695 Кбит/сек
Ширина : 720 пикселей
Высота : 384 пикселя
Соотношение сторон : 1,85:1
Частота кадров : 25,000 кадров/сек
Цветовое пространство : YUV
Субдискретизация насыщенности : 4:2:0
Битовая глубина : 8 бит
Тип развёртки : Прогрессивная
Метод сжатия : С потерями
Бит/(Пиксели*Кадры) : 0.245
Размер потока : 1,11 Гбайт (81%)
Библиотека кодирования : XviD 1.2.1 (UTC 2008-12-04)Аудио
Идентификатор : 1
Формат : AC-3
Формат/Информация : Audio Coding 3
Расширение режима : CM (complete main)
Параметр Endianness формата : Big
Идентификатор кодека : 2000
Продолжительность : 1 ч. 33 м.
Вид битрейта : Постоянный
Битрейт : 384 Кбит/сек
Каналы : 6 каналов
Расположение каналов : Front: L C R, Side: L R, LFE
Частота : 48,0 КГц
Частота кадров : 31,250 кадров/сек (1536 spf)
Метод сжатия : С потерями
Размер потока : 257 Мбайт (18%)
Выравнивание : Разделение по промежуткам
Продолжительность промежутка : 40 мс. (1,00 видеокадр)
Время предзагрузки промежутка : 500 мс.

Скриншот c названием фильма

Скриншоты


Трейлер
Яндекс.Метрика
Рейтинг@Mail.ru