Западный мир / Westworld (Майкл Крайтон / Michael Crichton) [1973 г., фантастика, боевик, триллер, вестерн, BDRip, 720p] MVO + Original (Eng) + Sub (Rus) + Original (Eng)

 

Создавать темы 06-Окт-2016 07:27

-Западный мир / Westworld-- Производство: США, MGM, ...
Год выпуска: 1973 г.
Жанр: фантастика, боевик, триллер, вестерн
Продолжительность: 01:25:07Мировая премьера: 21 ноября 1973
Перевод: Профессиональный (многоголосый, закадровый) [5-й канал СПб]
Оригинальный аудиопоток: английскийРежиссер: Майкл Крайтон / Michael Crichton-В ролях: Юл Бриннер, Ричард Бенджамин, Джеймс Бролин, Норман Бартолд, Алан Оппенхаймер, Дик Ван Паттен, Линда Гайе Скотт, Стив Франкен, Терри Уилсон, Виктория Шоу, Мэджел Барретт, Энн Беллами, Чарлз Сил, Вэйд Кросби, Майкл Т. Миклер, Нора Марлоу, Орвилл Шерман, Лоурен Гилберт, Энн Рэндолл, С. Линдсэй Уоркмэн, Дэвис Робертс, Крис Холтер, Ховард Платт, Ричард Роут, Джаред Мартин, Роберт Паттен, Кип Кинг, Том Фальк, Роберт Хоган, Кеннет Вашингтон, Дэвид М. Фрэнк, Дэвид Мэн, Ларри Делани, Уилл Дж. Уайт, Бен Янг-Описание: Западный Мир — это один из трех гигантских тематических парков, построенных на остатках американской природы. Есть еще Римский мир и Мир средних веков. За 1000 долларов в день туристы могут развлекаться в меру своих потребностей и аппетитов.Роботов, населяющих эти парки развлечений, можно насиловать, убивать, любить, расстреливать, рубить мечом. С ними можно даже подружиться. Они никогда не дают сдачи и не испытывают эмоций.Но вдруг в отлаженном механизме аттракциона что-то разлаживается. Компьютерная неполадка распространяется как чума. Роботы начинают восстание…-
Качество видео: BDRip
Контейнер: MKV
Стандарт разрешения: 720p
Видео кодек: MPEG4 AVC
Аудио кодек: AC3
Видео: 5290 Кбит/с, 1280x532, 25,000 кадров/сек
Аудио: 48 kHz, AC3, 2 ch, 192 kbps avg
Аудио #2: 48 kHz, AC3, 6 ch, 448 kbps avg
Cубтитры: русские
Формат субтитров: softsub (SSA/ASS)
Доп. информация о субтитрах: включаемые

Доп. информация

В этом фильме впервые в полнометражном кино были использованы обработанные компьютером изображения (фрагменты, показанные с «точки зрения» робота). Для этого была разработана специальная программа оцифровки и обработки изображений. Создание 10-секундного эпизода потребовало 8 часов машинного времени.
Робот-Стрелок в исполнении Юла Бриннера был намерено сделан копией Криса Адамса, персонажа Бриннера из фильма «Великолепная семёрка», и носил тот же самый костюм.

Награды

Сатурн, 1975 год
Номинации (1):
Золотой свиток - лучший научно-фантастический фильм

Рецензия

Игра не по правиламСудя по анонсам, на 2012 год намечен ремейк фильма Западный мир. Собсно, знаем мы, как эти ремейки лепятся и какое * часто из себя представляют, а потому, чтобы было за что поплеваться, если эксперимент не получится, всем любителям фантастики советую посмотреть оригинал 1973 года с Юлом Бриннером.Итак, парк развлечений, населенный роботами, с которыми можно делать все, что твоей душе угодно — хоть убивать и трахать (ну правда, не Библию же им читать). Но появляется некая инфекция и начинает медленно расползаться по территории парка, внося ошибки в действия биологических машин (не знали тогда, что такое компьютерные вирусы — не было их, как и персоналок в общем-то). В итоге сюжет идет по классической схеме: «плохой» робот против «хорошего» парня. В кавычках — потому что при просмотре возникло острое желание читать между строк и видеть между кадрами. Чтобы роботы не восставали как-то безыдейно что ли. Мне хотелось объяснения такому их желанию расправиться с людьми, и я додумывал его сам. Например, чувство мести. Показать этим людишкам, что нельзя нас безнаказанно убивать и измываться, как хочется!.. Или острая жажда справедливости. Сегодня вы нас — а завтра мы вас! Железная логика.Хотелось бы надеяться, что создатели ремейка сделают не просто блокбастер со спецэффектами, а вдохнут в фильм свежую струю драматизма. А то не спасет и Рассел Кроу в главной роли. Кстати, сам Крайтон безумно хотел переснять «Западный мир» по новым технологиям и разговоры об этом велись еще в конце 90-х, но видимо уже тогда он был серьезно болен и не получилось.9 из 10

Media Info

Общее
Уникальный идентификатор : 178758607454415344202026281336515699725 (0x867BA7CE47D580E98108F2C6EA25A40D)
Полное имя : J:\Западный мир\Zapadnyj mir.1973.BDRip.720p.[pirat.ca].mkv
Формат : Matroska
Версия формата : Version 2
Размер файла : 3,60 Гбайт
Продолжительность : 1 ч. 25 м.
Общий поток : 6054 Кбит/сек
Название фильма : Западный мир (Мир Дикого Запада) / Westworld / 1973 / BDRip
Дата кодирования : UTC 2016-10-05 10:11:17
Программа кодирования : mkvmerge v5.3.0 ('I could have danced') built on Feb 9 2012 10:38:07
Библиотека кодирования : libebml v1.2.3 + libmatroska v1.3.0Видео
Идентификатор : 1
Формат : AVC
Формат/Информация : Advanced Video Codec
Профиль формата : [email protected]/* */
Параметр CABAC формата : Да
Параметр ReFrames формата : 10 кадров
Идентификатор кодека : V_MPEG4/ISO/AVC
Продолжительность : 1 ч. 25 м.
Битрейт : 5293 Кбит/сек
Ширина : 1280 пикселей
Высота : 532 пикселя
Соотношение сторон : 2,40:1
Режим частоты кадров : Постоянный
Частота кадров : 25,000 кадров/сек
Цветовое пространство : YUV
Субдискретизация насыщенности : 4:2:0
Битовая глубина : 8 бит
Тип развёртки : Прогрессивная
Бит/(Пиксели*Кадры) : 0.311
Размер потока : 3,15 Гбайт (87%)
Библиотека кодирования : x264 core 135 r2345 f0c1c53
Настройки программы : cabac=1 / ref=10 / deblock=1:-1:-1 / analyse=0x3:0x113 / me=umh / subme=10 / psy=1 / psy_rd=1.00:0.15 / mixed_ref=1 / me_range=24 / chroma_me=1 / trellis=2 / 8x8dct=1 / cqm=0 / deadzone=21,11 / fast_pskip=0 / chroma_qp_offset=-3 / threads=6 / lookahead_threads=1 / sliced_threads=0 / nr=0 / decimate=1 / interlaced=0 / bluray_compat=0 / constrained_intra=0 / bframes=8 / b_pyramid=2 / b_adapt=2 / b_bias=0 / direct=1 / weightb=1 / open_gop=0 / weightp=2 / keyint=240 / keyint_min=24 / scenecut=40 / intra_refresh=0 / rc_lookahead=40 / rc=crf / mbtree=0 / crf=19.0 / qcomp=0.60 / qpmin=0 / qpmax=69 / qpstep=4 / vbv_maxrate=50000 / vbv_bufsize=62500 / crf_max=0.0 / nal_hrd=none / ip_ratio=1.40 / pb_ratio=1.30 / aq=1:1.00
Язык : English
Default : Да
Forced : НетАудио #1
Идентификатор : 2
Формат : AC-3
Формат/Информация : Audio Coding 3
Расширение режима : CM (complete main)
Параметр Endianness формата : Big
Идентификатор кодека : A_AC3
Продолжительность : 1 ч. 25 м.
Вид битрейта : Постоянный
Битрейт : 192 Кбит/сек
Каналы : 2 канала
Расположение каналов : Front: L R
Частота : 48,0 КГц
Частота кадров : 31,250 кадров/сек (1536 spf)
Метод сжатия : С потерями
Размер потока : 117 Мбайт (3%)
Заголовок : MVO (Спб 5-й канал)
Язык : Russian
Default : Да
Forced : НетАудио #2
Идентификатор : 3
Формат : AC-3
Формат/Информация : Audio Coding 3
Расширение режима : CM (complete main)
Параметр Endianness формата : Big
Идентификатор кодека : A_AC3
Продолжительность : 1 ч. 25 м.
Вид битрейта : Постоянный
Битрейт : 448 Кбит/сек
Каналы : 6 каналов
Расположение каналов : Front: L C R, Side: L R, LFE
Частота : 48,0 КГц
Частота кадров : 31,250 кадров/сек (1536 spf)
Метод сжатия : С потерями
Размер потока : 273 Мбайт (7%)
Заголовок : Original
Язык : English
Default : Нет
Forced : НетТекст
Идентификатор : 4
Формат : UTF-8
Идентификатор кодека : S_TEXT/UTF8
Идентификатор кодека/Информация : UTF-8 Plain Text
Заголовок : русский
Язык : Russian
Default : Нет
Forced : Нет

Скриншот c названием фильма

Скриншоты

Трейлер

Яндекс.Метрика
Рейтинг@Mail.ru